Цивільний позов / A Civil Action (1998) 720p Ukr/Eng | Sub Eng

Нові коментарі

Нова тема   Відповісти
Автор Повідомлення
Anonymous 







2020-07-29 09:15  
Цивільний позов / A Civil Action (1998) 720p Ukr/Eng | Sub Eng

Цивільний позов / A Civil Action (1998) 720p Ukr/Eng | Sub Eng


Жанр: драма
Країна: США



Кінокомпанія: Touchstone Pictures, Paramount Pictures, Wildwood Enterprises, Scott Rudin Productions
Режисер: Стівен Залліан / Steven Zaillian
Актори: Джон Траволта / John Travolta, Роберт Дюваль / Robert Duvall, Тоні Шелгуб / Tony Shalhoub, Вільям Х. Мейсі / William H. Macy, Желько Іванек / Zeljko Ivanek, Брюс Норріс / Bruce Norris, Джон Літгоу / John Lithgow, Кетлін Квінлен / Kathleen Quinlan, Пітер Джакобсон / Peter Jacobson, Марі Мара / Mary Mara, Джеймс Ґандольфіні / James Gandolfini, Стівен Фрай / Stephen Fry, Ден Хедайя / Dan Hedaya, Девід Торнтон / David Thornton, Сідні Поллак / Sydney Pollack

Сюжет:
Адвокат Ян Шліхтман — цинічний високооплачуваний юрист, що береться лише за дуже прибуткові справи, які він без зусиль вирішує поза залою суду. Його чергова справа обіцяє бути вельми легкою.

Але Шліхтман не підозрює, що грядущий судовий процес перетвориться на важку, незкінченну битву, в якій адвокатові доведеться поставити на карту свій стан, репутацію і честь...


Тривалість: 01:54:49
Якість: 720p
Відео:
кодек:
розмір кадру: 1280х716
бітрейт: 3996 кб/с

Аудіо # 1:
мова: українська
переклад: багатоголосий закадровий
кодек: 2.0
бітрейт: 192 кб/с

Аудіо # 2:
мова: англійська
переклад: оригінал
кодек: 5.1
бітрейт: 384 кб/с

Субтитри:
мова: англійська
тип: програмні (м'які)
формат: *.srt
Info
General
Unique ID : 223515629686459515291648639739002482400 (0xA8278B5F72B5476999D00790ABFDEEE0)
Complete name : E:\Toloka\2020\A Civil Action (1998) 720p.
Format :
Format version : Version 4
File size : 3.74 GiB
Duration : 1 h 54 min
Overall bit rate : 4 664 kb/s
Encoded date : UTC 2020-07-29 06:11:04
Writing application : v6.1.0 ('Old Devil') built on Mar 4 2013 09:10:42
Writing library : libebml v1.3.0 + v1.4.0

Video
ID : 1
Format : AVC
Format/Info : Advanced Video Codec
Format profile : [email protected]
Format settings : 2 Ref Frames
Format settings, CABAC : No
Format settings, Reference : 2 frames
Codec ID : V_MPEG4/ISO/AVC
Duration : 1 h 54 min
Bit rate : 3 996 kb/s
Width : 1 280 pixels
Height : 716 pixels
Display aspect ratio : 16:9
Frame rate mode : Constant
Frame rate : 23.976 FPS
Color space : YUV
Chroma subsampling : 4:2:0
Bit depth : 8 bits
Scan type : Progressive
Bits/(Pixel*Frame) : 0.182
Stream size : 3.20 GiB (86%)
Language : English
Default : Yes
Forced : No
Color range : Limited
Color primaries : BT.709
Transfer characteristics : BT.709
Matrix coefficients : BT.709
Duration_Source : General_Duration

Audio #1
ID : 2
Format : AC-3
Format/Info : Audio Coding 3
Commercial name : Dolby Digital
Codec ID : A_AC3
Duration : 1 h 54 min
Bit rate mode : Constant
Bit rate : 192 kb/s
Channel(s) : 2 channels
Channel layout : L R
Sampling rate : 48.0 kHz
Frame rate : 31.250 FPS (1536 SPF)
Compression mode : Lossy
Stream size : 158 MiB (4%)
Title : UKR (Mega)
Language : Ukrainian
Service kind : Complete Main
Default : Yes
Forced : Yes
Duration_Source : General_Duration

Audio #2
ID : 3
Format : AC-3
Format/Info : Audio Coding 3
Commercial name : Dolby Digital
Codec ID : A_AC3
Duration : 1 h 54 min
Bit rate mode : Constant
Bit rate : 384 kb/s
Channel(s) : 6 channels
Channel layout : L R C LFE Ls Rs
Sampling rate : 48.0 kHz
Frame rate : 31.250 FPS (1536 SPF)
Compression mode : Lossy
Stream size : 315 MiB (8%)
Title : ENG
Language : English
Service kind : Complete Main
Default : No
Forced : No
Duration_Source : General_Duration

Text
ID : 4
Format : UTF-8
Codec ID : S_TEXT/UTF8
Codec ID/Info : UTF-8 Plain Text
Title : ENG
Language : English
Default : No
Forced : No

Menu
00:00:00.000 : en:Chapter 1
00:07:18.000 : en:Chapter 2
00:15:42.000 : en:Chapter 3
00:23:57.000 : en:Chapter 4
00:30:59.000 : en:Chapter 5
00:39:47.000 : en:Chapter 6
00:48:00.000 : en:Chapter 7
00:56:36.000 : en:Chapter 8
01:04:36.000 : en:Chapter 9
01:12:21.000 : en:Chapter 10
01:21:41.000 : en:Chapter 11
01:30:35.000 : en:Chapter 12
01:35:25.000 : en:Chapter 13
01:41:54.000 : en:Chapter 14
01:49:41.000 : en:Chapter 15
Скріншоти






За доріжку подяка п.: andic, karvai0
Особиста подяка пану denixx за надану матеріальну допомогу на підтримку цього і майбутніх релізів.
Джерело:


Срібний реліз (на рейтинг впливає 50% завантаженого)
 Трекер:    Зареєстрований   

Завантажити / скачати фільм українською



відео для новачків



 Зареєстрований:   2020-07-29 09:15
 Розмір:   3.74 GB 
 Оцінка фільму:   10/10 (Голосів: 3)
   
Інші релізи
   Цивільний позов / A Civil Action (1998) Ukr/Eng | Sub Eng karvai0  1 / 0   2.05 GB   2012-10-12 22:14 
sergej_kriv 
Новенький


З нами з: 13.02.12
Востаннє: 23.09.20
Повідомлень: 14

2020-07-29 13:57  
"грядущий"
мабуть, це калька з російської

clavaykraini 
Свій


З нами з: 16.05.14
Востаннє: 23.09.20
Повідомлень: 85

2020-07-29 16:52  
sergej_kriv написано:

"грядущий"
мабуть, це калька з російської

так, яку вживати не обов"язково, бо є: прийдешній/майбутній/будучний/наступний/потомний...

Ваш часовий пояс: GMT + 2 Години

Нова тема   Відповісти