Зоряний шлях / Star Trek (2009) UHD Remux 4K 2160p HDR H.265 Ukr/Eng | Sub Ukr/Eng

Нові коментарі

Нова тема   Відповісти
Автор Повідомлення
RoMeL 
Відео Гуртом - підтримка та поширення
Відео Гуртом - підтримка та поширення


З нами з: 09.07.08
Востаннє: 27.09.20
Повідомлень: 169

2020-07-28 22:09  
Зоряний шлях / Star Trek (2009) UHD Remux 4K 2160p HDR H.265 Ukr/Eng | Sub Ukr/Eng



Жанр: пригодницький, фантастика, екшн
Країна: США



Кінокомпанія: Paramount Pictures, Spyglass Entertainment, Bad Robot
Режисер: Дж. Дж. Абрамс
Актори: Кріс Пайн, Захарі Квінто, Леонард Німой, Ерік Бана, Брюс Грінвуд, Карл Урбан, Зої Салдана, Саймон Пегг, Джон Чо, Антон Єлчін, Вайнона Райдер та інші

Сюжет:
Коли Нерон з планети Ромул приходить з майбутнього, щоб помститися Федерації, конкуренти Кірк і Спок вимушені об'єднатися, щоб не дати йому зруйнувати все, що є в них дорогого. Під час цієї надзвичайної подорожі, повної ефектних бойовищ, гумору та космічних погроз, новоспечені члени команди військового корабля «Ентерпрайз» сміливо зустрінуться віч-на-віч з неймовірними небезпеками.


Тривалість: 02:06:50
Якість: Remux 4K 2160p HDR H.265
Відео:
кодек: H.265 (HEVC)
розмір кадру: 3840 х 2160
бітрейт: 53 Мбіт/сек
бітова глибина: 10 біт
кольоровий простір: BT.2020 (HDR)

Увага! Перед завантаженням переконайтесь, що ваш пристрій відтворення (та/або ПЗ) підтримує H.265 (HEVC)

Аудіо # 1:
мова: українська
переклад: професійний дубльований
кодек: AC-3 5.1
бітрейт: 448 кб/с

Аудіо # 2:
мова: англійська
переклад: оригінал
кодек: 5.1
бітрейт: 640 кб/с

Субтитри # 1:
мова: українська
тип: програмні (м'які)
формат: *.srt

Субтитри # 2-3:
мова: англійська(Full,SDH)
тип: програмні (м'які)
формат: *.srt
Info
Код:
General
Unique ID                                : 108631698603688266961098626988924207639 (0x51B9B4418A0ABDE7CCAECBE9A8BC0217)
Complete name                            : /Volumes/Download/Movies/Star.Trek.2009.Remux.2160p.HDR.[Ukr.Eng].
Format                                   :
Format version                           : Version 4
File size                                : 47.9 GiB
Duration                                 : 2h 6mn
Overall bit rate                         : 54.1 Mbps
Movie name                               : Star.Trek.2009.Remux.2160p.HDR.[Ukr.Eng]
Encoded date                             : UTC 2020-07-27 10:18:04
Writing application                      : v47.0.0 ('Black Flag') 64-bit
Writing library                          : libebml v1.3.10 + v1.5.2
Cover                                    : Yes
Attachments                              : Cover.jpg

Video
ID                                       : 1
Format                                   : HEVC
Format/Info                              : High Efficiency Video Coding
Format profile                           : Main [email protected]@High
HDR format                               : SMPTE ST 2086, HDR10 compatible
Codec ID                                 : V_MPEGH/ISO/HEVC
Duration                                 : 2h 6mn
Bit rate                                 : 53.0 Mbps
Width                                    : 3 840 pixels
Height                                   : 2 160 pixels
Display aspect ratio                     : 16:9
Frame rate mode                          : Constant
Frame rate                               : 23.976 (24000/1001) fps
Color space                              : YUV
Chroma subsampling                       : 4:2:0 (Type 2)
Bit depth                                : 10 bits
Bits/(Pixel*Frame)                       : 0.267
Stream size                              : 47.0 GiB (98%)
Title                                    : MPEG-H HEVC Video / 53000 kbps / 2160p / 23.976 fps / 16:9 / Main 10 Profile 5.1 High / 4:2:0 / 10 bits / HDR / BT.2020 /
Writing library                          : ATEME Titan KFE 3.7.3 (4.7.3.1003)
Default                                  : Yes
Forced                                   : No
Color range                              : Limited
Color primaries                          : BT.2020
Transfer characteristics                 : PQ
Matrix coefficients                      : BT.2020 non-constant
Mastering display color primaries        : Display P3
Mastering display luminance              : min: 0.0050 cd/m2, max: 1000 cd/m2

Audio #1
ID                                       : 2
Format                                   : AC-3
Format/Info                              : Audio Coding 3
Commercial name                          : Dolby Digital
Codec ID                                 : A_AC3
Duration                                 : 2h 6mn
Bit rate mode                            : Constant
Bit rate                                 : 448 Kbps
Channel(s)                               : 6 channels
Channel layout                           : L R C LFE Ls Rs
Sampling rate                            : 48.0 KHz
Frame rate                               : 31.250 fps (1536 SPF)
Compression mode                         : Lossy
Stream size                              : 406 MiB (1%)
Title                                    : Ukrainian
Language                                 : Ukrainian
Service kind                             : Complete Main
Default                                  : Yes
Forced                                   : No

Audio #2
ID                                       : 3
Format                                   : AC-3
Format/Info                              : Audio Coding 3
Commercial name                          : Dolby Digital
Codec ID                                 : A_AC3
Duration                                 : 2h 6mn
Bit rate mode                            : Constant
Bit rate                                 : 640 Kbps
Channel(s)                               : 6 channels
Channel layout                           : L R C LFE Ls Rs
Sampling rate                            : 48.0 KHz
Frame rate                               : 31.250 fps (1536 SPF)
Compression mode                         : Lossy
Stream size                              : 581 MiB (1%)
Title                                    : English
Language                                 : English
Service kind                             : Complete Main
Default                                  : No
Forced                                   : No

Text #1
ID                                       : 4
Format                                   : UTF-8
Codec ID                                 : S_TEXT/UTF8
Codec ID/Info                            : UTF-8 Plain Text
Duration                                 : 2h 5mn
Bit rate                                 : 104 bps
Count of elements                        : 1336
Stream size                              : 96.4 KiB (0%)
Title                                    : Full
Language                                 : Ukrainian
Default                                  : No
Forced                                   : No

Text #2
ID                                       : 5
Format                                   : UTF-8
Codec ID                                 : S_TEXT/UTF8
Codec ID/Info                            : UTF-8 Plain Text
Duration                                 : 1h 57mn
Bit rate                                 : 64 bps
Count of elements                        : 1317
Stream size                              : 55.4 KiB (0%)
Title                                    : Full
Language                                 : English
Default                                  : No
Forced                                   : No

Text #3
ID                                       : 6
Format                                   : UTF-8
Codec ID                                 : S_TEXT/UTF8
Codec ID/Info                            : UTF-8 Plain Text
Duration                                 : 1h 57mn
Bit rate                                 : 70 bps
Count of elements                        : 1596
Stream size                              : 60.8 KiB (0%)
Title                                    : SDH
Language                                 : English
Default                                  : No
Forced                                   : No
Скріншоти





Джерело: &
Особиста оцінка: 10 - без зайвих вагань рекомендую всім!


Золотий реліз (завантажене не впливає на рейтинг)
 Трекер:    Зареєстрований   

Завантажити / скачати фільм українською



відео для новачків



 Зареєстрований:   2020-07-28 22:09
 Розмір:   47.92 GB 
 Оцінка фільму:   9.7/10 (Голосів: 6)
   
Інші релізи
   Зоряний шлях / Star Trek (2009) Remux 1080p 2xUkr/Eng | Sub Ukr/Eng Argentum  5 / 0   33.14 GB   2017-08-21 17:21 
   Зоряний шлях / Star Trek (2009) 1080p (60fps) Ukr/Eng | Sub Ukr/Eng Drool  0 / 0   19.51 GB   2013-10-19 19:33 
   Зоряний шлях / Star Trek (2009) 720p 2xUkr/Eng | Sub Ukr/Eng aalleexx85  7 / 0   4.14 GB   2013-07-24 09:59 
   Зоряний шлях / Star Trek (2009) 2xUkr BILko  1 / 0   2.17 GB   2012-06-02 17:42 
   Зоряний шлях / Star Trek (2009) 1080p Ukr/Eng | Sub Ukr/Eng SainTManiac  4 / 0   13.59 GB   2009-10-30 18:41 
   Зоряний шлях / Star Trek (2009) Ukr/Eng Snooppy  3 / 0   2.18 GB   2009-10-29 20:27 
-_-B_Е_N_D_E_R-_- 
VIP


З нами з: 04.03.20
Востаннє: 27.09.20
Повідомлень: 565

2020-07-28 23:02  
Загубили озвучку від К1 https://toloka.to/t80453
RoMeL 
Відео Гуртом - підтримка та поширення
Відео Гуртом - підтримка та поширення


З нами з: 09.07.08
Востаннє: 27.09.20
Повідомлень: 169

2020-07-28 23:10  
-_-B_Е_N_D_E_R-_- написано:
Загубили озвучку від К1 https://toloka.to/t80453

небачу змісту добавляти стерео в 4K

-_-B_Е_N_D_E_R-_- 
VIP


З нами з: 04.03.20
Востаннє: 27.09.20
Повідомлень: 565

2020-07-29 01:04  
RoMeL написано:
небачу змісту добавляти стерео в 4K

А що воно змінить?добавить 100мб?

sirkon10 
Частий відвідувач


З нами з: 13.05.12
Востаннє: 27.09.20
Повідомлень: 48

2020-07-29 01:32  
Та якби ж то було тут 4К. Знову маркетологи дурять споживача Sad (1)

imdb:
Cinematographic Process Digital Intermediate (2K) (master format)

Ваш часовий пояс: GMT + 2 Години

Нова тема   Відповісти