Формула 1. Сезон 1994. Етап 15. Гран-Прі Японії. Гонка (06.11.1994) 720p

Нові коментарі

Нова тема   Відповісти
Автор Повідомлення
sergiyko.5 
VIP


З нами з: 25.02.16
Востаннє: 11.08.20
Повідомлень: 3323

2020-07-28 16:16  
Формула 1. Сезон 1994. Етап 15. Гран-Прі Японії. Гонка (06.11.1994) 720p


Формула 1. Сезон 1994. Етап 15. Гран-Прі Японії. Гонка (06.11.1994) 720p

Жанр: Перегони Формули 1
Країна: Японія
Телеканал: BBC Sport
Коментар: Максим Подзігун (коментар 2020 року)

Опис:
Гонка п`ятнадцятого етапу Гран-Прі Японії 1994 року.


Якість:

Відео:кодек: розмір кадру: 1280 х 720 бітрейт: 5000 кб/с
Аудіо: мова: українська кодек: 2.0 бітрейт: 192 кб/с
Тривалість:
02:39:01
Про файл:
General
Complete name : D:\Documents\Torrents\SPORT\Formula 1\F1.1994.15.Japanese.Race.Classica.2020.mp4
Format : MPEG-4
Format profile : Base Media / Version 2
Codec ID : mp42 (isom/mp42)
File size : 5.76 GiB
Duration : 2 h 39 min
Overall bit rate mode : Variable
Overall bit rate : 5 189 kb/s
Encoded date : UTC 2020-04-22 21:21:07
Tagged date : UTC 2020-04-22 21:21:07

Video
ID : 1
Format : AVC
Format/Info : Advanced Video Codec
Format profile : [email protected]
Format settings : CABAC / 1 Ref Frames
Format settings, CABAC : Yes
Format settings, Reference : 1 frame
Format settings, GOP : M=1, N=30
Codec ID : avc1
Codec ID/Info : Advanced Video Coding
Duration : 2 h 39 min
Bit rate : 4 997 kb/s
Width : 1 280 pixels
Height : 720 pixels
Display aspect ratio : 16:9
Frame rate mode : Constant
Frame rate : 25.000 FPS
Color space : YUV
Chroma subsampling : 4:2:0
Bit depth : 8 bits
Scan type : Progressive
Bits/(Pixel*Frame) : 0.217
Stream size : 5.55 GiB (96%)
Language : English
Encoded date : UTC 2020-04-22 21:21:08
Tagged date : UTC 2020-04-22 21:21:08
Codec configuration box : avcC

Audio
ID : 2
Format : LC
Format/Info : Advanced Audio Codec Low Complexity
Codec ID : mp4a-40-2
Duration : 2 h 39 min
Bit rate mode : Variable
Bit rate : 192 kb/s
Maximum bit rate : 351 kb/s
Channel(s) : 2 channels
Channel layout : L R
Sampling rate : 48.0 kHz
Frame rate : 46.875 FPS (1024 SPF)
Compression mode : Lossy
Stream size : 215 MiB (4%)
Language : English
Encoded date : UTC 2020-04-22 21:21:08
Tagged date : UTC 2020-04-22 21:21:08
Скріншоти:




Срібний реліз (на рейтинг впливає 50% завантаженого)
 Трекер:    Зареєстрований   

Завантажити / скачати торрент



відео для новачків



 Зареєстрований:   2020-07-28 16:16
 Розмір:   5.76 GB 
 Оцінка:   8.2/10 (Голосів: 6)
   
Ваш часовий пояс: GMT + 2 Години

Нова тема   Відповісти