Братство справедливості / Brotherhood of justice (1986) 1080p Ukr/Eng | Sub Eng

Нові коментарі

Нова тема   Відповісти
Автор Повідомлення
Anonymous 







2020-07-26 14:51  
Братство справедливості / Brotherhood of justice (1986) 1080p Ukr/Eng | Sub Eng

Братство справедливості / Brotherhood of justice (1986) 1080p Ukr/Eng | Sub Eng


Жанр: драма, трилер
Країна: США



Кінокомпанія: The Guber-Peters Company
Режисер: Чарльз Бреверман
Актори: Кіану Рівз, Кіфер Сазерленд, Лорі Лафлін, Джо Спано, Даррен Далтон

Сюжет:
Група студентів коледжу на чолі з Дереком (Кіану Рівз) вирішила виступити проти беззаконня в коледжі і з цією метою створила підпільну організацію "Братство справедливості". Починалося все з ідеї "спостереження за людьми", але незабаром ситуація вийшла з-під контролю. Методи, які вони вибрали для боротьби, вельми кримінальні: когось закидали петардами, комусь зіпсували автомобіль, а кого і штрикнули ножем. Справа доходить до бомби, яку закладають в автомобіль Віктора (Кіфер Сазерленд), що залицяється до дівчини Дерека. Дерек намагається зупинити те, що почав, але вже надто пізно...


Тривалість: 01:33:52
Якість: 1080p
Відео:
кодек:
розмір кадру: 1440х1080
бітрейт: 10000 кб/с

Аудіо # 1:
мова: українська
переклад: багатоголосий закадровий | студія "Так треба продакшн"
кодек: 2.0
бітрейт: 192 кб/с

Аудіо # 2:
мова: англійська
переклад: оригінал
кодек: 2.0
бітрейт: 224 кб/с

Субтитри:
мова: англійська
тип: програмні (м'які)
формат: *.srt
Info
General
Unique ID : 206738715261878530021942318395857764167 (0x9B886DA10D2AA75B87B90E05BADEFF47)
Complete name : E:\Toloka\2020\Brotherhood of justice (1986) 1080p.
Format :
Format version : Version 4
File size : 6.74 GiB
Duration : 1 h 33 min
Overall bit rate : 10.3 Mb/s
Encoded date : UTC 2020-07-26 11:42:25
Writing application : v6.1.0 ('Old Devil') built on Mar 4 2013 09:10:42
Writing library : libebml v1.3.0 + v1.4.0

Video
ID : 1
Format : AVC
Format/Info : Advanced Video Codec
Format profile : [email protected]
Format settings : CABAC / 4 Ref Frames
Format settings, CABAC : Yes
Format settings, Reference : 4 frames
Codec ID : V_MPEG4/ISO/AVC
Duration : 1 h 33 min
Bit rate mode : Constant
Bit rate : 10 000 kb/s
Width : 1 440 pixels
Height : 1 080 pixels
Display aspect ratio : 4:3
Frame rate mode : Constant
Frame rate : 23.976 (24000/1001) FPS
Color space : YUV
Chroma subsampling : 4:2:0
Bit depth : 8 bits
Scan type : Progressive
Bits/(Pixel*Frame) : 0.268
Stream size : 6.33 GiB (94%)
Default : Yes
Forced : No
Color range : Limited
Color primaries : BT.709
Transfer characteristics : BT.709
Matrix coefficients : BT.709
Statistics Tags Issue : v41.0.0 ('Smarra') 64-bit 2020-07-17 18:47:33 / v6.1.0 ('Old Devil') built on Mar 4 2013 09:10:42 2020-07-26 11:42:25
FromStats_BitRate : 9858214
FromStats_Duration : 01:33:52.460000000
FromStats_FrameCount : 135044
FromStats_StreamSize : 6940749832
Duration_Source : General_Duration

Audio #1
ID : 2
Format : AC-3
Format/Info : Audio Coding 3
Commercial name : Dolby Digital
Codec ID : A_AC3
Duration : 1 h 33 min
Bit rate mode : Constant
Bit rate : 192 kb/s
Channel(s) : 2 channels
Channel layout : L R
Sampling rate : 48.0 kHz
Frame rate : 31.250 FPS (1536 SPF)
Compression mode : Lossy
Stream size : 129 MiB (2%)
Title : UKR (Так треба продакшн)
Language : Ukrainian
Service kind : Complete Main
Default : Yes
Forced : Yes
Duration_Source : General_Duration

Audio #2
ID : 3
Format : E-AC-3
Format/Info : Enhanced AC-3
Commercial name : Dolby Digital Plus
Codec ID : A_EAC3
Duration : 1 h 33 min
Bit rate mode : Constant
Bit rate : 224 kb/s
Channel(s) : 2 channels
Channel layout : L R
Sampling rate : 48.0 kHz
Frame rate : 31.250 FPS (1536 SPF)
Compression mode : Lossy
Stream size : 150 MiB (2%)
Title : ENG
Language : English
Service kind : Complete Main
Default : No
Forced : No
Statistics Tags Issue : v41.0.0 ('Smarra') 64-bit 2020-07-17 18:47:33 / v6.1.0 ('Old Devil') built on Mar 4 2013 09:10:42 2020-07-26 11:42:25
FromStats_BitRate : 224000
FromStats_Duration : 01:33:52.480000000
FromStats_FrameCount : 176015
FromStats_StreamSize : 157709440
Duration_Source : General_Duration

Text #1
ID : 4
Format : UTF-8
Codec ID : S_TEXT/UTF8
Codec ID/Info : UTF-8 Plain Text
Title : ENG
Language : English
Default : No
Forced : No
Statistics Tags Issue : v41.0.0 ('Smarra') 64-bit 2020-07-17 18:47:33 / v6.1.0 ('Old Devil') built on Mar 4 2013 09:10:42 2020-07-26 11:42:25
FromStats_BitRate : 66
FromStats_Duration : 01:26:05.813000000
FromStats_FrameCount : 1326
FromStats_StreamSize : 42998

Text #2
ID : 5
Format : UTF-8
Codec ID : S_TEXT/UTF8
Codec ID/Info : UTF-8 Plain Text
Title : ENG SDH
Language : English
Default : No
Forced : No
Statistics Tags Issue : v41.0.0 ('Smarra') 64-bit 2020-07-17 18:47:33 / v6.1.0 ('Old Devil') built on Mar 4 2013 09:10:42 2020-07-26 11:42:25
FromStats_BitRate : 65
FromStats_Duration : 01:30:24.332000000
FromStats_FrameCount : 1403
FromStats_StreamSize : 44355
Скріншоти







За постер подяка п. yuraflash
За доріжку подяка п.: yuraflash, YureK
Особиста подяка пану denixx за надану матеріальну допомогу на підтримку цього і майбутніх релізів.
Джерело:


Срібний реліз (на рейтинг впливає 50% завантаженого)
 Трекер:    Зареєстрований   

Завантажити / скачати фільм українською



відео для новачків



 Зареєстрований:   2020-07-26 14:51
 Розмір:   6.74 GB 
 Оцінка фільму:   9.3/10 (Голосів: 3)
   
Інші релізи
11994455 
Попереджень: 2
Попереджень: 2 


З нами з: 07.04.14
Востаннє: 29.09.20
Повідомлень: 633

2020-07-27 21:34  
Кайф - Рівз, Сазерленд(молодший), і ше забули Біллі Зейна .... шикарний саунд - Бред Фідел тількишо з Термінатора...
Ваш часовий пояс: GMT + 2 Години

Нова тема   Відповісти