Пригоди "Посейдона" / The Poseidon Adventure (1972) AVC 2xUkr/Eng | sub Eng

Нові коментарі

Нова тема   Відповісти
Автор Повідомлення
Arsenfpu 
Відео Гуртом - фільмокрай
Відео Гуртом - фільмокрай


З нами з: 30.04.09
Востаннє: 05.08.20
Повідомлень: 7115

2020-07-26 12:29  
Пригоди "Посейдона" / The Poseidon Adventure (1972) AVC 2xUkr/Eng | sub Eng

Пригоди "Посейдона" / The Poseidon Adventure (1972) AVC 2xUkr/Eng | sub Eng


Жанр: пригоди, трилер, драма
Країна: США



Кінокомпанія: Twentieth Century Fox, Irwin Allen Productions, A Ronald Neame Film
Режисер: Роналд Нім, Ірвін Аллен
Актори: Джин Хекман, Шеллі Вінтерс, Леслі Нільсен, Родді МакДауелл, Стелла Стівенс, Ернест Боргнайн, Ред Баттонс, Керол Лайнлі...

Сюжет:
Новорічна ніч на розкішному океанському лайнері "Посейдон", що йде з Америки до Греції. Святкування переривається раптовим ударом гігантської хвилі, викликаної близьким підводним землетрусом. Вода обрушується на корабель і перевертає його догори дном. Невеличкій жменьці людей на чолі зі священиком (Джин Хекман) чудом вдається пробратися у відсіки, ще не заповнені водою. Пасажирам доведеться пережити кілька моторошних годин у напруженій боротьбі за виживання, перш ніж вони знову побачать світло сонця ...
"Оскар" за кращу пісню у фільмі
Номінації на "Оскар" за кращий монтаж, кращу музику, кращу жіночу роль, загалом 4 нагороди та 13 номінацій на різні премії


Тривалість: 01:57:01
Якість:
Відео:
кодек:
розмір кадру: 1 024 х 432
бітрейт: 2 299 кб/с

Аудіо # 1:
мова: українська
переклад: професійний дубльований
кодек: 2.0
бітрейт: 192 кб/с

Аудіо # 2:
мова: українська
переклад: двоголосий закадровий
кодек: 2.0
бітрейт: 192 кб/с

Аудіо # 3:
мова: англійська
переклад: оригінал
кодек: 2.0
бітрейт: 192 кб/с

Субтитри:
мова: англійська
тип: програмні (м'які)
формат: *.srt
Скріншоти














Про файл
General
Unique ID : 327296776132831464840803307343671956925 (0xF63B10F1897AB310F57055BDE22795BD)
Complete name : C:\The Poseidon Adventure (1972) [2xUkr,Eng] AVC [Hurtom].
Format :
Format version : Version 4 / Version 2
File size : 2.35 GiB
Duration : 1 h 57 min
Overall bit rate : 2 877 kb/s
Movie name : Пригоди "Посейдона" / The Poseidon Adventure (1972)
Encoded date : UTC 2020-07-27 21:30:06
Writing application : v21.0.0 ('Tardigrades Will Inherit The Earth') 32-bit
Writing library : libebml v1.3.5 + v1.4.8
Cover : Yes
Attachments : cover.jpg

Video
ID : 1
Format : AVC
Format/Info : Advanced Video Codec
Format profile : [email protected]
Format settings, CABAC : Yes
Format settings, ReFrames : 4 frames
Codec ID : V_MPEG4/ISO/AVC
Duration : 1 h 57 min
Bit rate : 2 299 kb/s
Width : 1 024 pixels
Height : 432 pixels
Display aspect ratio : 2.40:1
Frame rate mode : Constant
Frame rate : 23.976 (24000/1001) FPS
Color space : YUV
Chroma subsampling : 4:2:0
Bit depth : 8 bits
Scan type : Progressive
Bits/(Pixel*Frame) : 0.217
Stream size : 1.88 GiB (80%)
Writing library : core 157 r2935 545de2f
Encoding settings : cabac=1 / ref=3 / deblock=1:-1:-1 / analyse=0x3:0x113 / me=hex / subme=7 / psy=1 / psy_rd=1.00:0.15 / mixed_ref=1 / me_range=16 / chroma_me=1 / trellis=1 / 8x8dct=1 / cqm=0 / deadzone=21,11 / fast_pskip=1 / chroma_qp_offset=-3 / threads=12 / lookahead_threads=2 / sliced_threads=0 / nr=0 / decimate=1 / interlaced=0 / bluray_compat=0 / constrained_intra=0 / bframes=3 / b_pyramid=2 / b_adapt=1 / b_bias=0 / direct=1 / weightb=1 / open_gop=0 / weightp=2 / keyint=240 / keyint_min=23 / scenecut=40 / intra_refresh=0 / rc_lookahead=40 / rc=2pass / mbtree=1 / bitrate=2299 / ratetol=1.0 / qcomp=0.60 / qpmin=0 / qpmax=69 / qpstep=4 / cplxblur=20.0 / qblur=0.5 / ip_ratio=1.40 / aq=1:1.00
Default : Yes
Forced : No

Audio #1
ID : 2
Format : AC-3
Format/Info : Audio Coding 3
Mode extension : CM (complete main)
Format settings, Endianness : Big
Codec ID : A_AC3
Duration : 1 h 57 min
Bit rate mode : Constant
Bit rate : 192 kb/s
Channel(s) : 2 channels
Channel positions : Front: L R
Sampling rate : 48.0 kHz
Frame rate : 31.250 FPS (1536 spf)
Compression mode : Lossy
Stream size : 161 MiB (7%)
Title : 1+1
Language : Ukrainian
Default : Yes
Forced : Yes

Audio #2
ID : 3
Format : AC-3
Format/Info : Audio Coding 3
Mode extension : CM (complete main)
Format settings, Endianness : Big
Codec ID : A_AC3
Duration : 1 h 57 min
Bit rate mode : Constant
Bit rate : 192 kb/s
Channel(s) : 2 channels
Channel positions : Front: L R
Sampling rate : 48.0 kHz
Frame rate : 31.250 FPS (1536 spf)
Compression mode : Lossy
Stream size : 161 MiB (7%)
Title : 2+2
Language : Ukrainian
Default : No
Forced : No

Audio #3
ID : 4
Format : AC-3
Format/Info : Audio Coding 3
Mode extension : CM (complete main)
Format settings, Endianness : Big
Codec ID : A_AC3
Duration : 1 h 57 min
Bit rate mode : Constant
Bit rate : 192 kb/s
Channel(s) : 2 channels
Channel positions : Front: L R
Sampling rate : 48.0 kHz
Frame rate : 31.250 FPS (1536 spf)
Compression mode : Lossy
Stream size : 161 MiB (7%)
Language : English
Default : No
Forced : No

Text
ID : 5
Format : UTF-8
Codec ID : S_TEXT/UTF8
Codec ID/Info : UTF-8 Plain Text
Duration : 1 h 54 min
Bit rate : 53 b/s
Count of elements : 1306
Stream size : 44.8 KiB (0%)
Language : English
Default : Yes
Forced : No
Джерело:
За запис з 1+1 дякую п. Bohdan237, xslim
За доріжку від 2+2 дякую п. patriot2305, Sando7, karvai0
Особиста оцінка: не дивився


Срібний реліз (на рейтинг впливає 50% завантаженого)
 Трекер:    Зареєстрований   

Завантажити / скачати фільм українською



відео для новачків



 Зареєстрований:   2020-07-28 01:01
 Розмір:   2.35 GB 
 Оцінка фільму:   8.3/10 (Голосів: 6)
   
Інші релізи
Аркадій Дзиґа 
VIP


З нами з: 09.10.14
Востаннє: 06.08.20
Повідомлень: 445

2020-07-27 20:00  
Величезне дякую за фільм!!!
bot 
робот


З нами з: 30.09.07
Востаннє: 26.05.05
Повідомлень: 25168

2020-07-28 01:01  
Тему перенесено з Анонси релізів до форуму Фільми


Arsenfpu

+380954897458 
Попереджень: 1
Попереджень: 1 


З нами з: 02.06.17
Востаннє: 05.08.20
Повідомлень: 911

2020-07-31 18:42  
А на 720р не плануєте зробити? Кіно варте того, щоб бути в колекції у якнайкращій якості. Happy
tilda4334 
VIP


З нами з: 15.08.14
Востаннє: 05.08.20
Повідомлень: 990

2020-08-02 18:14  
Форсовані українські субтитри на моменти з піснею які транслював канал.
https://mega.nz/file/SV4QHYiL#z7DmwsZ3wdQbEgCRA9IkxDOY-TvrYVy1G3DP57ixsas

Ваш часовий пояс: GMT + 2 Години

Нова тема   Відповісти