Дикуни / The Savages (2007) AVC Ukr/Eng

Нові коментарі

Нова тема   Відповісти
Автор Повідомлення
Arsenfpu 
Відео Гуртом - фільмокрай
Відео Гуртом - фільмокрай


З нами з: 30.04.09
Востаннє: 08.08.20
Повідомлень: 7126

2020-07-25 21:13  
Дикуни / The Savages (2007) AVC Ukr/Eng

Дикуни / The Savages (2007) AVC Ukr/Eng


Жанр: комедія, драма
Країна: США



Кінокомпанія: This Is That Productions, Fox Searchlight Pictures, Lone Star Film Group, Cooper's Town Productions, Ad Hominem Enterprises, Savage Productions
Режисер: Тамара Дженкінс
Актори: Лора Лінні, Філіп Сеймур Гофмен, Філіп Боско, Пітер Фрідман, Девід Заяс, Гбенга Аккінагбе, Кара Сеймур, Тоні Патано, Гай Бойд, Дебра Монк, Розмарі Мерфі, Хал Бланкеншіп, Джоан Джаффе, Сейдж Кіркпатрік, Салем Людвіг

Сюжет:
Брат і сестра, Джон і Уенді Севідж, зростали, мріючи скоріше позбавитися від образ і грубощів з боку свого батька, Ленні Севіджа. Але, через багато років, коли вони вже живуть своїм самостійним життям, раптово вмирає подруга їх батька і з'ясовується, що він не може сам про себе поклопотатися, оскільки страждає недоумством. Родинне почуття зобов'язало їх допомогти йому, але в першу чергу вони повинні досягти згоди з самими собою, поборовши усередині себе демонів, яких виростив в них Ленні.


Тривалість: 01:54:15
Якість:
Відео:
кодек:
розмір кадру: 1 024 х 560
бітрейт: 2 299 кб/с

Аудіо # 1:
мова: українська
переклад: двоголосий закадровий
кодек: 2.0
бітрейт: 192 кб/с

Аудіо # 2:
мова: англійська
переклад: оригінал
кодек: 2.0
бітрейт: 192 кб/с
Скріншоти














Про файл
General
Unique ID : 222593209563320714739177069782823836275 (0xA775E48CACBC1631C99B63C659979A73)
Complete name : C:\The Savages (2007) [Ukr,Eng] AVC [Hurtom].
Format :
Format version : Version 4 / Version 2
File size : 2.14 GiB
Duration : 1 h 54 min
Overall bit rate : 2 683 kb/s
Movie name : Дикуни / The Savages (2007)
Encoded date : UTC 2020-07-25 15:42:42
Writing application : v21.0.0 ('Tardigrades Will Inherit The Earth') 32-bit
Writing library : libebml v1.3.5 + v1.4.8
Cover : Yes
Attachments : cover.jpg

Video
ID : 1
Format : AVC
Format/Info : Advanced Video Codec
Format profile : [email protected]
Format settings, CABAC : Yes
Format settings, ReFrames : 4 frames
Codec ID : V_MPEG4/ISO/AVC
Duration : 1 h 54 min
Bit rate : 2 299 kb/s
Width : 1 024 pixels
Height : 560 pixels
Display aspect ratio : 1.85:1
Frame rate mode : Constant
Frame rate : 23.976 (24000/1001) FPS
Color space : YUV
Chroma subsampling : 4:2:0
Bit depth : 8 bits
Scan type : Progressive
Bits/(Pixel*Frame) : 0.167
Stream size : 1.83 GiB (86%)
Writing library : core 157 r2935 545de2f
Encoding settings : cabac=1 / ref=3 / deblock=1:-1:-1 / analyse=0x3:0x113 / me=hex / subme=7 / psy=1 / psy_rd=1.00:0.15 / mixed_ref=1 / me_range=16 / chroma_me=1 / trellis=1 / 8x8dct=1 / cqm=0 / deadzone=21,11 / fast_pskip=1 / chroma_qp_offset=-3 / threads=12 / lookahead_threads=2 / sliced_threads=0 / nr=0 / decimate=1 / interlaced=0 / bluray_compat=0 / constrained_intra=0 / bframes=3 / b_pyramid=2 / b_adapt=1 / b_bias=0 / direct=1 / weightb=1 / open_gop=0 / weightp=2 / keyint=240 / keyint_min=23 / scenecut=40 / intra_refresh=0 / rc_lookahead=40 / rc=2pass / mbtree=1 / bitrate=2299 / ratetol=1.0 / qcomp=0.60 / qpmin=0 / qpmax=69 / qpstep=4 / cplxblur=20.0 / qblur=0.5 / ip_ratio=1.40 / aq=1:1.00
Default : Yes
Forced : No

Audio #1
ID : 2
Format : AC-3
Format/Info : Audio Coding 3
Mode extension : CM (complete main)
Format settings, Endianness : Big
Codec ID : A_AC3
Duration : 1 h 54 min
Bit rate mode : Constant
Bit rate : 192 kb/s
Channel(s) : 2 channels
Channel positions : Front: L R
Sampling rate : 48.0 kHz
Frame rate : 31.250 FPS (1536 spf)
Compression mode : Lossy
Stream size : 157 MiB (7%)
Title : 1+1
Language : Ukrainian
Default : Yes
Forced : Yes

Audio #2
ID : 3
Format : AC-3
Format/Info : Audio Coding 3
Mode extension : CM (complete main)
Format settings, Endianness : Big
Codec ID : A_AC3
Duration : 1 h 54 min
Bit rate mode : Constant
Bit rate : 192 kb/s
Channel(s) : 2 channels
Channel positions : Front: L R
Sampling rate : 48.0 kHz
Frame rate : 31.250 FPS (1536 spf)
Compression mode : Lossy
Stream size : 157 MiB (7%)
Language : English
Default : No
Forced : No

Text
ID : 4
Format : UTF-8
Codec ID : S_TEXT/UTF8
Codec ID/Info : UTF-8 Plain Text
Duration : 1 h 52 min
Bit rate : 65 b/s
Count of elements : 1479
Stream size : 53.8 KiB (0%)
Language : English
Default : Yes
Forced : No
Джерело:
За українську доріжку дякую пану karvai0
За постер дякую пану bober-mober
Особиста оцінка: не дивився


 Трекер:    Зареєстрований   

Завантажити / скачати фільм українською



відео для новачків



 Зареєстрований:   2020-07-25 21:13
 Розмір:   2.14 GB 
 Оцінка фільму:   7.7/10 (Голосів: 6)
   
Інші релізи
   Дикуни / The Savages (2007) drop_plz  1 / 0   1.75 GB   2019-06-19 09:53 
   Дикуни / The Savages (2007) Ukr/Eng | Sub Ukr/Eng karvai0  3 / 0   2.03 GB   2012-09-12 19:15 
Ваш часовий пояс: GMT + 2 Години

Нова тема   Відповісти