Дорога на Веллвіл / The Road to Wellville (1994) 1080p Ukr/Eng | Sub Eng

Нові коментарі

Нова тема   Відповісти
Автор Повідомлення
Anonymous 







2020-07-25 15:08  
Дорога на Веллвіл / The Road to Wellville (1994) 1080p Ukr/Eng | Sub Eng

Дорога на Веллвіл / The Road to Wellville (1994) 1080p Ukr/Eng | Sub Eng


Жанр: комедія
Країна: США



Кінокомпанія: Columbia Pictures
Режисер: Алан Паркер
Актори: Ентоні Хопкінс / Anthony Hopkins, Бріджет Фонда / Bridget Fonda, Меттю Бродерік / Matthew Broderick, Джон К'юсак / John Cusack, Дейна Карві / Dana Carvey, Майкл Лернер / Michael Lerner, Колм Міні / Colm Meaney, Джон Невілл / John Neville, Лара Флінн Бойл / Lara Flynn Boyle

Сюжет:
Доктор Келлог вважає, що найбільша загроза для здоров'я, це вживання м'яса та секс, натомість промивання шлунку, вегетаріанська дієта,
фізичні вправи та, винайдені ним, лікувальні процедури можуть подовжити людське життя до безкінечності. В своїй клініці він лікує багатіїв від
справжніх та примарних хвороб, схожими на тортури, методами. Пацієнт, окрім хвороб, може позбавитись і життя. Але доктор Келлог не
переймається такими дрібницями, адже він - месія, що прийшов в цей світ, аби врятувати людство.
І невгамовний доктор Келлог, і його непутящий син, і подружня пара - екзальтована молода особа та її чоловік, страждаючий від постійної ерекції,
і молодий бізнесмен, що розтринькав гроші, позичені в багатої тітки на заснування власної справи, і шарлатани, що "лікують" жінок, позбавлених
чоловічої уваги, і різношерстні аферисти та пройдисвіти - всі вони мають пройти свій шлях.
Шлях до Веллвіла!


Тривалість: 02:00:02
Якість: 1080p
Відео:
кодек:
розмір кадру: 1920х1040
бітрейт: 8921 кб/с

Аудіо # 1:
мова: українська
переклад: багатоголосий закадровий
кодек: 2.0
бітрейт: 192 кб/с

Аудіо # 2:
мова: англійська
переклад: оригінал
кодек: 2.0
бітрейт: 1509 кб/с

Субтитри:
мова: англійська
тип: програмні (м'які)
формат: *.srt
Info
General
Unique ID : 248954349268169273650458114367691364428 (0xBB4ADD152888A8258800FC7FEE47184C)
Complete name : E:\Toloka\2020\The Road to Wellville (1994) 1080p.
Format :
Format version : Version 4
File size : 8.90 GiB
Duration : 2 h 0 min
Overall bit rate : 10.6 Mb/s
Encoded date : UTC 2020-07-25 11:58:46
Writing application : v6.1.0 ('Old Devil') built on Mar 4 2013 09:10:42
Writing library : libebml v1.3.0 + v1.4.0

Video
ID : 1
Format : AVC
Format/Info : Advanced Video Codec
Format profile : [email protected]
Format settings : CABAC / 4 Ref Frames
Format settings, CABAC : Yes
Format settings, Reference : 4 frames
Codec ID : V_MPEG4/ISO/AVC
Duration : 2 h 0 min
Bit rate : 8 921 kb/s
Width : 1 920 pixels
Height : 1 040 pixels
Display aspect ratio : 1.85:1
Frame rate mode : Constant
Frame rate : 23.976 (24000/1001) FPS
Color space : YUV
Chroma subsampling : 4:2:0
Bit depth : 8 bits
Scan type : Progressive
Bits/(Pixel*Frame) : 0.186
Stream size : 7.30 GiB (82%)
Writing library : core 150 r2833 df79067
Encoding settings : cabac=1 / ref=4 / deblock=1:-3:-3 / analyse=0x3:0x133 / me=umh / subme=9 / psy=1 / psy_rd=1.00:0.00 / mixed_ref=1 / me_range=16 / chroma_me=1 / trellis=2 / 8x8dct=1 / cqm=0 / deadzone=21,11 / fast_pskip=0 / chroma_qp_offset=-2 / threads=24 / lookahead_threads=2 / sliced_threads=0 / nr=0 / decimate=1 / interlaced=0 / bluray_compat=0 / constrained_intra=0 / bframes=3 / b_pyramid=2 / b_adapt=1 / b_bias=0 / direct=3 / weightb=1 / open_gop=0 / weightp=2 / keyint=250 / keyint_min=23 / scenecut=40 / intra_refresh=0 / rc_lookahead=50 / rc=2pass / mbtree=1 / bitrate=8921 / ratetol=1.0 / qcomp=0.60 / qpmin=0 / qpmax=69 / qpstep=4 / cplxblur=20.0 / qblur=0.5 / ip_ratio=1.40 / aq=1:1.00
Language : English
Default : Yes
Forced : No
Duration_Source : General_Duration

Audio #1
ID : 2
Format : AC-3
Format/Info : Audio Coding 3
Commercial name : Dolby Digital
Codec ID : A_AC3
Duration : 2 h 0 min
Bit rate mode : Constant
Bit rate : 192 kb/s
Channel(s) : 2 channels
Channel layout : L R
Sampling rate : 48.0 kHz
Frame rate : 31.250 FPS (1536 SPF)
Compression mode : Lossy
Stream size : 165 MiB (2%)
Title : UKR (1+1)
Language : Ukrainian
Service kind : Complete Main
Default : Yes
Forced : Yes
Duration_Source : General_Duration

Audio #2
ID : 3
Format :
Format/Info : Digital Theater Systems
Codec ID : A_DTS
Duration : 2 h 0 min
Bit rate mode : Constant
Bit rate : 1 509 kb/s
Channel(s) : 2 channels
Channel layout : L R
Sampling rate : 48.0 kHz
Frame rate : 93.750 FPS (512 SPF)
Bit depth : 24 bits
Compression mode : Lossy
Stream size : 1.27 GiB (14%)
Title : ENG
Language : English
Default : No
Forced : No
Duration_Source : General_Duration

Text
ID : 4
Format : UTF-8
Codec ID : S_TEXT/UTF8
Codec ID/Info : UTF-8 Plain Text
Title : ENG
Language : English
Default : Yes
Forced : No

Menu
00:00:00.000 : en:00:00:00.000
00:15:20.878 : en:00:15:20.878
00:29:29.226 : en:00:29:29.226
00:45:20.551 : en:00:45:20.551
01:06:46.878 : en:01:06:46.878
01:22:23.105 : en:01:22:23.105
01:39:46.147 : en:01:39:46.147
01:57:05.310 : en:01:57:05.310
Скріншоти















За доріжку подяка п. AlexTex
Особиста подяка пану denixx за надану матеріальну допомогу на підтримку цього і майбутніх релізів.
Джерело:


Срібний реліз (на рейтинг впливає 50% завантаженого)
 Трекер:    Зареєстрований   

Завантажити / скачати фільм українською



відео для новачків



 Зареєстрований:   2020-07-25 15:08
 Розмір:   8.9 GB 
 Оцінка фільму:   10/10 (Голосів: 2)
   
Інші релізи
Ваш часовий пояс: GMT + 2 Години

Нова тема   Відповісти