Кімната страху / Panic Room (2002) 1080p Ukr/Eng | Sub Eng

Нові коментарі

Нова тема   Відповісти
Автор Повідомлення
Anonymous 







2020-07-25 03:12  
Кімната страху / Panic Room (2002) 1080p Ukr/Eng | Sub Eng


«Це мала бути найбезпечніша кімната в будинку»




Жанр: кримінальний, трилер, драма
Країна: США



Кінокомпанія: Columbia Pictures Corporation, Hofflund/Polone, Indelible Pictures
Режисер: Дейвід Фінчер
Актори: Джоді Фостер, Дуайт Йокам, Форест Вайтекер, Джаред Лето, Крістен Стюарт.

Сюжет:
Мег Олтмен, яка щойно розлучилася з чоловіком, купує будинок у Вестсайді і переїздить туди разом з дочкою Сарою. Колишній власник будинку створив спеціальну кімнату-бункер, де можна було б сховатися від грабіжників. Ця кімната стає єдиним шансом на порятунок Мег і Сари під час нападу трьох злочинців - Джуніора, Бернема та Рауля...

Тривалість: 01:51:56
Якість: 1080p

Відео:
кодек:
розмір кадру: 1920 x 1080
бітрейт: 10,5 Мбіт/с

Аудіо #1:
мова: українська
переклад: багатоголосий закадровий [ТРК Україна]
кодек: 5.1
бітрейт: 384 Кбіт/с

Аудіо #2:
мова: англійська
переклад: оригінал
кодек: E-AC-3 5.1
бітрейт: 640 Кбіт/с

Субтитри:
мова: англійська | повні
тип: програмні (м'які)
формат: *.srt

Info


General
Unique ID : 193249282953376734288764768588229980864 (0x916275448AE78941A377B3FFE41332C0)
Format :
Format version : Version 4
File size : 9.05 GiB
Duration : 1 h 52 min
Overall bit rate mode : Variable
Overall bit rate : 11.6 Mb/s
Movie name : Panic Room (2002) 1080p [OpenMatte][UkrEng][SubEng] [Hurtom]
Encoded date : UTC 2020-07-24 23:56:58
Writing application : v46.0.0 ('No Deeper Escape') 64-bit
Writing library : libebml v1.3.10 + v1.5.2
Attachments : poster_eng.jpg

Video
ID : 1
Format : AVC
Format/Info : Advanced Video Codec
Format profile : [email protected]
Format settings : CABAC / 4 Ref Frames
Format settings, CABAC : Yes
Format settings, Reference fra : 4 frames
Codec ID : V_MPEG4/ISO/AVC
Duration : 1 h 52 min
Bit rate mode : Variable
Bit rate : 10.5 Mb/s
Maximum bit rate : 15.0 Mb/s
Width : 1 920 pixels
Height : 1 080 pixels
Display aspect ratio : 16:9
Frame rate mode : Constant
Frame rate : 23.976 (24000/1001) FPS
Color space : YUV
Chroma subsampling : 4:2:0
Bit depth : 8 bits
Scan type : Progressive
Bits/(Pixel*Frame) : 0.212
Stream size : 8.25 GiB (91%)
Title : Panic Room (2002) [OpenMatte] 1080p
Language : English
Default : Yes
Forced : No
Color range : Limited
Color primaries : BT.709
Transfer characteristics : BT.709
Matrix coefficients : BT.709

Audio #1
ID : 2
Format : AC-3
Format/Info : Audio Coding 3
Commercial name : Dolby Digital
Codec ID : A_AC3
Duration : 1 h 51 min
Bit rate mode : Constant
Bit rate : 384 kb/s
Channel(s) : 6 channels
Channel layout : L R C LFE Ls Rs
Sampling rate : 48.0 kHz
Frame rate : 31.250 FPS (1536 SPF)
Compression mode : Lossy
Delay relative to video : 9 s 0 ms
Stream size : 307 MiB (3%)
Title : MVO [ТРК Україна] 5.1 @ 384 Кбіт/с
Language : Ukrainian
Service kind : Complete Main
Default : Yes
Forced : No

Audio #2
ID : 3
Format : E-AC-3
Format/Info : Enhanced AC-3
Commercial name : Dolby Digital Plus
Codec ID : A_EAC3
Duration : 1 h 52 min
Bit rate mode : Constant
Bit rate : 640 kb/s
Channel(s) : 6 channels
Channel layout : L R C LFE Ls Rs
Sampling rate : 48.0 kHz
Frame rate : 31.250 FPS (1536 SPF)
Compression mode : Lossy
Stream size : 513 MiB (6%)
Title : [Оригінал] EAC3 5.1 @ 640 Кбіт/с
Language : English
Service kind : Complete Main
Default : No
Forced : No

Text
ID : 4
Format : UTF-8
Codec ID : S_TEXT/UTF8
Codec ID/Info : UTF-8 Plain Text
Duration : 1 h 46 min
Bit rate : 36 b/s
Count of elements : 1061
Stream size : 28.8 KiB (0%)
Title : Повні
Language : English
Default : No
Forced : No

Menu
00:00:00.000 : en:1
00:06:34.000 : en:2
00:15:24.000 : en:3
00:20:20.000 : en:4
00:26:53.000 : en:5
00:32:01.000 : en:6
00:42:31.000 : en:7
00:48:04.000 : en:8
00:55:51.000 : en:9
01:04:55.000 : en:10
01:08:27.000 : en:11
01:11:57.000 : en:12
01:17:33.000 : en:13
01:26:42.000 : en:14
01:33:08.000 : en:15
01:42:42.000 : en:16
Скріншоти








Джерело: &


Срібний реліз (на рейтинг впливає 50% завантаженого)
 Трекер:    Зареєстрований   

Завантажити / скачати фільм українською



відео для новачків



 Зареєстрований:   2020-07-25 03:12
 Розмір:   9.05 GB 
 Оцінка фільму:   10/10 (Голосів: 1)
   
Інші релізи
   Кімната страху / Panic Room (2002) 720p Ukr/Eng | Sub Eng aalleexx85  3 / 0   3.75 GB   2014-03-15 15:15 
   Кімната страху / Panic Room (2002) Ukr/Eng Givi  2 / 0   2.12 GB   2012-11-25 23:32 
   Кімната страху / Panic Room (2002) AVC Ukr/Eng | Eng Sub imonko  5 / 0   2.4 GB   2011-03-17 17:13 
Ваш часовий пояс: GMT + 2 Години

Нова тема   Відповісти