Невдаха (Сезон 1) / The Unremarkable Juanquini / Chichipatos (Season 1) (2020) 720p

Нові коментарі

Нова тема   Відповісти
Автор Повідомлення
Anonymous 







2020-07-24 21:21  
Невдаха (Сезон 1) / The Unremarkable Juanquini / Chichipatos (Season 1) (2020) 720p



Жанр: комедія
Країна: Колумбія



Кінокомпанія: Dago García Producciones
Режисер: Даго Гарсіа
Актори: Джуліан Сераті, Марія Сесилія Санчес, Маріана Гомес, Хуліо Сезар Ерера, Ель Міндо, Антоніо Санінт

Сюжет:
Втомившись від того, що ніхто не сприймає його всерйоз, фокусник Хуанкіні має намір довести своїй родині, що він не Невдаха. Для цього він вивчає новий фокус, найскладніший з усіх, що він коли-небудь показував. Це класичний трюк зі зникненням людини, який в усі часи подобався глядачам різного віку. Але все йде не за планом.


Тривалість: 1 серія: 40:00 - 27:00 (цілком серій: 7 з 7)
Перелік серій
1.An Invisible Father
2.The Magician in His Labyrinth
3.Extradition
4.The Echoes of Absence
5.A New Family
6.Toccata and Flight
7.Easy to Get Into, Hard to Get Out Of
Якість:
Відео:
кодек:
розмір кадру: 1280 х 720
бітрейт: 3845 кб/с

Аудіо:
мова: українська
переклад: багатоголосий закадровий
кодек: 2.0
бітрейт: 384 кб/с
Info
Video
ID : 1
Format : AVC
Format/Info : Advanced Video Codec
Format profile : [email protected]
Format settings : CABAC / 4 Ref Frames
Format settings, CABAC : Yes
Format settings, Reference : 4 frames
Codec ID : V_MPEG4/ISO/AVC
Duration : 39 min 11 s
Bit rate : 3 845 kb/s
Width : 1 280 pixels
Height : 720 pixels
Display aspect ratio : 16:9
Frame rate mode : Constant
Frame rate : 23.976 (24000/1001) FPS
Color space : YUV
Chroma subsampling : 4:2:0
Bit depth : 8 bits
Scan type : Progressive
Bits/(Pixel*Frame) : 0.174
Stream size : 1.05 GiB (91%)
Default : Yes
Forced : No

Audio
ID : 2
Format : AC-3
Format/Info : Audio Coding 3
Commercial name : Dolby Digital
Codec ID : A_AC3
Duration : 39 min 12 s
Bit rate mode : Constant
Bit rate : 384 kb/s
Channel(s) : 2 channels
Channel layout : L R
Sampling rate : 48.0 kHz
Frame rate : 31.250 FPS (1536 SPF)
Compression mode : Lossy
Stream size : 108 MiB (9%)
Language : Ukrainian
Service kind : Complete Main
Default : Yes
Forced : No
Скріншоти









Джерело:
Особиста оцінка: 0 - не дивився


Авторський реліз (завантажувати можна без реєстрації)
 Трекер:    Зареєстрований   

Завантажити / скачати серіал українською



відео для новачків



 Зареєстрований:   2020-07-24 21:21
 Розмір:   5.93 GB 
 Оцінка серіалу:   10/10 (Голосів: 2)
   
Cartwright 
VIP


З нами з: 23.03.13
Востаннє: 07.08.20
Повідомлень: 313

2020-07-24 21:53  
Ого, Байбако щось останнім часом масово взялися за озвучку українською. Це дуже круто.
Neytreenor 
Відео Гуртом - запис з ТБ
Відео Гуртом - запис з ТБ


З нами з: 03.04.11
Востаннє: 08.08.20
Повідомлень: 2674

2020-07-24 22:15  
Cartwright написано:
Ого, Байбако щось останнім часом масово взялися за озвучку українською. Це дуже круто.

Але вибір матеріалу дещо, як би це сказати, "для вузької аудиторії".

Anonymous 







2020-07-24 22:39  
Cartwright написано:
масово взялися за озвучку українською

Та де там, 4 серіали. Шовк вони давно почали і по трошки роблять, а ось два нещодавно колумбійських озвучили і ще одну мелодраму "милі магнолії" можливо у них те усе і замовив хтось, але все одно добре)

tsyka 
Свій


З нами з: 12.02.16
Востаннє: 07.08.20
Повідомлень: 58

2020-07-26 14:40  
Anonymous
а це українська студія?

Dark Invader 
Модератор відео


З нами з: 06.01.11
Востаннє: 08.08.20
Повідомлень: 2889

2020-07-26 18:32  
tsyka написано:
а це українська студія?

Так, BaibaKo - це українська студія.

Ваш часовий пояс: GMT + 2 Години

Нова тема   Відповісти