Хлопаки (Сезон 1) / The Boys (Season 1) (2019) UHD 2160p 4K HDR H.265 Ukr/Eng | Sub Ukr/Eng

Нові коментарі

Нова тема   Відповісти
Автор Повідомлення
RoMeL 
Відео Гуртом - підтримка та поширення
Відео Гуртом - підтримка та поширення


З нами з: 09.07.08
Востаннє: 08.08.20
Повідомлень: 158

2020-07-24 15:28  
Хлопаки (Сезон 1) / The Boys (Season 1) (2019) UHD 2160p 4K HDR H.265 Ukr/Eng | Sub Ukr/Eng




Жанр: бойовик, комедія, пародія, екшн, кримінальний
Країна: США



Кінокомпанія: Sony Pictures Television, Amazon Studios
Режисер: Леннерц Крістофер
Актори: Карл Урбан, Джек Квід, Ентоні Стар, Ерін Моріарті, Домініка МакЕлліґот, Лаз Алонсо

Сюжет:
Хлопаки — це непоштивий погляд на ситуацію, коли супергерої, знамениті як зірки, впливові як політики і шановані, як боги, зловживають суперсилами замість того, щоб творити добро.
Безсилі проти надмогутніх, Хлопаки вирушають на героїчний бій за правду про "Сімку" і їх грізних покровителів: Мандри


Тривалість: 1 серія: 60 хв. (цілком серій: 8)
Перелік серій
Серія 01. Ось такі ігри
Серія 02. Вишенька
Серія 03. Отримуй
Серія 04. Самиця
Серія 05. Добре для душі
Серія 06. Невинні
Серія 07. Товариство самозбереження
Серія 08. Ти знайшов мене
Якість: 2160p HDR
Відео:
кодек: H.265 (HEVC)
розмір кадру: 3840 х 2160
бітрейт: ~14,5 Мбіт/сек
бітова глибина: 10 біт
кольоровий простір: BT.2020 (HDR)

Увага! Перед завантаженням переконайтесь, що ваш пристрій відтворення (та/або ПЗ) підтримує H.265 (HEVC)

Аудіо # 1:
мова: українська
переклад: багатоголосий закадровий | Увага, присутня нецензурна лексика!
кодек: 5.1
бітрейт: 640 кб/с

Джерело озвучення: DZUSKI.COM
Переклад та редакція: Aspid
Реліз і контроль якості: Вояка Schweik
Ролі озвучували: Meltynjaka, Gidozepam4ik та Trina_D

Аудіо # 2:
мова: англійська
переклад: оригінал
кодек: E- 5.1
бітрейт: 640 кб/с

Субтитри # 1:
мова: українська
тип: програмні (м'які)
формат: *.srt

Субтитри # 2-3:
мова: англійська (повні, SDH)
тип: програмні (м'які)
формат: *.srt
Info

Код:
General
Unique ID                                : 61000754024733967113997007918763468700 (0x2DE45160A03802DF32EC8E0082A9E79C)
Complete name                            : /Volumes/Download/Shows/The.Boys.S01.2019..2160p.HDR.[Ukr.Eng]/The.Boys.S01E01.2019..2160p.HDR.[Ukr.Eng].
Format                                   :
Format version                           : Version 4
File size                                : 6.64 GiB
Duration                                 : 1h 0mn
Overall bit rate                         : 15.8 Mbps
Movie name                               : The.Boys.S01E01.2019..2160p.HDR.[Ukr.Eng]
Encoded date                             : UTC 2020-07-23 15:41:00
Writing application                      : v47.0.0 ('Black Flag') 64-bit
Writing library                          : libebml v1.3.10 + v1.5.2
Cover                                    : Yes
Attachments                              : cover.jpg

Video
ID                                       : 1
Format                                   : HEVC
Format/Info                              : High Efficiency Video Coding
Format profile                           : Main [email protected]@Main
HDR format                               : SMPTE ST 2094 App 4, Version 0
Codec ID                                 : V_MPEGH/ISO/HEVC
Duration                                 : 1h 0mn
Bit rate                                 : 14.5 Mbps
Width                                    : 3 840 pixels
Height                                   : 2 160 pixels
Display aspect ratio                     : 16:9
Frame rate mode                          : Constant
Frame rate                               : 23.976 (24000/1001) fps
Standard                                 : NTSC
Color space                              : YUV
Chroma subsampling                       : 4:2:0 (Type 2)
Bit depth                                : 10 bits
Bits/(Pixel*Frame)                       : 0.073
Stream size                              : 6.10 GiB (92%)
Default                                  : Yes
Forced                                   : No
Color range                              : Limited
Color primaries                          : BT.2020
Transfer characteristics                 : PQ
Matrix coefficients                      : BT.2020 non-constant
Mastering display color primaries        : Display P3
Mastering display luminance              : min: 0.0001 cd/m2, max: 1000 cd/m2
Maximum Content Light Level              : 848 cd/m2
Maximum Frame-Average Light Level        : 151 cd/m2

Audio #1
ID                                       : 2
Format                                   : AC-3
Format/Info                              : Audio Coding 3
Commercial name                          : Dolby Digital
Codec ID                                 : A_AC3
Duration                                 : 1h 0mn
Bit rate mode                            : Constant
Bit rate                                 : 640 Kbps
Channel(s)                               : 6 channels
Channel layout                           : L R C LFE Ls Rs
Sampling rate                            : 48.0 KHz
Frame rate                               : 31.250 fps (1536 SPF)
Compression mode                         : Lossy
Stream size                              : 275 MiB (4%)
Title                                    : Ukrainian
Language                                 : Ukrainian
Service kind                             : Complete Main
Default                                  : Yes
Forced                                   : No

Audio #2
ID                                       : 3
Format                                   : E-AC-3
Format/Info                              : Enhanced AC-3
Commercial name                          : Dolby Digital Plus
Codec ID                                 : A_EAC3
Duration                                 : 1h 0mn
Bit rate mode                            : Constant
Bit rate                                 : 640 Kbps
Channel(s)                               : 6 channels
Channel layout                           : L R C LFE Ls Rs
Sampling rate                            : 48.0 KHz
Frame rate                               : 31.250 fps (1536 SPF)
Compression mode                         : Lossy
Stream size                              : 275 MiB (4%)
Title                                    : English
Language                                 : English
Service kind                             : Complete Main
Default                                  : No
Forced                                   : No

Text #1
ID                                       : 4
Format                                   : UTF-8
Codec ID                                 : S_TEXT/UTF8
Codec ID/Info                            : UTF-8 Plain Text
Duration                                 : 57mn 36s
Bit rate                                 : 98 bps
Count of elements                        : 982
Stream size                              : 41.4 KiB (0%)
Title                                    : Ukrainian
Language                                 : Ukrainian
Default                                  : No
Forced                                   : No

Text #2
ID                                       : 5
Format                                   : UTF-8
Codec ID                                 : S_TEXT/UTF8
Codec ID/Info                            : UTF-8 Plain Text
Duration                                 : 59mn 24s
Bit rate                                 : 77 bps
Count of elements                        : 1184
Stream size                              : 33.6 KiB (0%)
Title                                    : English
Language                                 : English
Default                                  : No
Forced                                   : No

Text #3
ID                                       : 6
Format                                   : UTF-8
Codec ID                                 : S_TEXT/UTF8
Codec ID/Info                            : UTF-8 Plain Text
Duration                                 : 59mn 35s
Bit rate                                 : 77 bps
Count of elements                        : 1197
Stream size                              : 33.7 KiB (0%)
Title                                    : English [SDH]
Language                                 : English
Default                                  : No
Forced                                   : No
Скріншоти




Джерело: & DZUSKI.COM &
Особиста оцінка: 10 - без зайвих вагань рекомендую всім!



Авторський реліз (завантажувати можна без реєстрації)
 Трекер:    Зареєстрований   

Завантажити / скачати серіал українською



відео для новачків



 Зареєстрований:   2020-07-24 15:28
 Розмір:   52.28 GB 
 Оцінка серіалу:   9.8/10 (Голосів: 4)
   
Ваш часовий пояс: GMT + 2 Години

Нова тема   Відповісти