Містер Сент Нік / Mr. St. Nick (2002) 1080p Ukr/Eng | Sub Ukr/Eng

Нові коментарі

Нова тема   Відповісти
Автор Повідомлення
Anonymous 







2020-07-24 13:26  
Містер Сент Нік / Mr. St. Nick (2002) 1080p Ukr/Eng | Sub Ukr/Eng

Містер Сент Нік / Mr. St. Nick (2002) 1080p Ukr/Eng | Sub Ukr/Eng


Жанр: комедія, фентезі
Країна: Канада, США



Кінокомпанія: Hallmark Entertainment, Mr. St. Nick Inc.
Режисер: Крейг Зіск (Craig Zisk)
Актори: Келсі Греммер (Kelsey Grammer), Чарльз Дернінг (Charles Durning), Кетрін Хелмонд (Katherine Helmond), Брайан Бедфорд (Brian Bedford), Ілейн Хендрікс (Elaine Hendrix), Ана Ортіз (Ana Ortiz), Луїс Гарсіа (Luis Garcia)

Сюжет:
В Ялинковому замку, який мальовничо розкинувся під променями Північного сяйва, король Клаус XX, більше відомий як просто Санта, і його дружина Карлотта явно відчувають себе не «у своїй тарілці». До Різдва залишилося всього нічого, а старіючий король повинен встигнути передати свій трон і магічну силу спадкоємцю - кронпринцу Ніку Санта Клаусу.

Але спадкоємець і не думає повертатися додому, щоб «перейняти віжки» з рук батька. «Найбільш бажаний холостяк Майамі» живе в розкішному будинку на березі океану, не вилазить з нічних клубів і з легкістю готовий проміняти батьківські сани на спекотне сонце. Ніку не потрібні ні олені, ні біла борода, ні червоний костюм, ні батьківський мішок з подарунками. Що ж може врятувати Різдво? Тільки диво...


Тривалість: 01:27:20
Якість: 1080p
Відео:
кодек:
розмір кадру: 1440х1080
бітрейт: 7917 кб/с

Аудіо # 1:
мова: українська
переклад: двоголосий закадровий
кодек: 2.0
бітрейт: 192 кб/с

Аудіо # 2:
мова: англійська
переклад: оригінал
кодек: E-AC-3 2.0
бітрейт: 224 кб/с

Субтитри:
мова: українська
тип: програмні (м'які)
формат: *.srt

Субтитри:
мова: англійська
тип: програмні (м'які)
формат: *.srt
Info
General
Unique ID : 224892486854276528517939440394813685204 (0xA930B7AC1DC62ECA8631BBE90779BDD4)
Complete name : E:\Toloka\2020\Mr. St. Nick (2002) 1080p.
Format :
Format version : Version 4
File size : 5.19 GiB
Duration : 1 h 27 min
Overall bit rate : 8 502 kb/s
Encoded date : UTC 2020-07-24 10:18:59
Writing application : v6.1.0 ('Old Devil') built on Mar 4 2013 09:10:42
Writing library : libebml v1.3.0 + v1.4.0

Video
ID : 1
Format : AVC
Format/Info : Advanced Video Codec
Format profile : [email protected]
Format settings : CABAC / 4 Ref Frames
Format settings, CABAC : Yes
Format settings, Reference : 4 frames
Codec ID : V_MPEG4/ISO/AVC
Duration : 1 h 27 min
Bit rate mode : Constant
Bit rate : 7 917 kb/s
Nominal bit rate : 10 000 kb/s
Width : 1 440 pixels
Height : 1 080 pixels
Display aspect ratio : 4:3
Frame rate mode : Constant
Frame rate : 29.970 (30000/1001) FPS
Color space : YUV
Chroma subsampling : 4:2:0
Bit depth : 8 bits
Scan type : Progressive
Bits/(Pixel*Frame) : 0.170
Stream size : 4.83 GiB (93%)
Default : Yes
Forced : No
Color range : Limited
Color primaries : BT.709
Transfer characteristics : BT.709
Matrix coefficients : BT.709
Statistics Tags Issue : v41.0.0 ('Smarra') 64-bit 2020-07-17 18:44:46 / v6.1.0 ('Old Devil') built on Mar 4 2013 09:10:42 2020-07-24 10:18:59
FromStats_BitRate : 8083152
FromStats_Duration : 01:27:20.034000000
FromStats_FrameCount : 157044
FromStats_StreamSize : 5294499501
Duration_Source : General_Duration

Audio #1
ID : 2
Format : AC-3
Format/Info : Audio Coding 3
Commercial name : Dolby Digital
Codec ID : A_AC3
Duration : 1 h 27 min
Bit rate mode : Constant
Bit rate : 192 kb/s
Channel(s) : 2 channels
Channel layout : L R
Sampling rate : 48.0 kHz
Frame rate : 31.250 FPS (1536 SPF)
Compression mode : Lossy
Stream size : 120 MiB (2%)
Title : UKR (ICTV)
Language : Ukrainian
Service kind : Complete Main
Default : Yes
Forced : Yes
Duration_Source : General_Duration

Audio #2
ID : 3
Format : E-AC-3
Format/Info : Enhanced AC-3
Commercial name : Dolby Digital Plus
Codec ID : A_EAC3
Duration : 1 h 27 min
Bit rate mode : Constant
Bit rate : 224 kb/s
Channel(s) : 2 channels
Channel layout : L R
Sampling rate : 48.0 kHz
Frame rate : 31.250 FPS (1536 SPF)
Compression mode : Lossy
Stream size : 140 MiB (3%)
Title : ENG
Language : English
Service kind : Complete Main
Default : No
Forced : No
Statistics Tags Issue : v41.0.0 ('Smarra') 64-bit 2020-07-17 18:44:46 / v6.1.0 ('Old Devil') built on Mar 4 2013 09:10:42 2020-07-24 10:18:59
FromStats_BitRate : 224000
FromStats_Duration : 01:27:20.096000000
FromStats_FrameCount : 163753
FromStats_StreamSize : 146722688
Duration_Source : General_Duration

Text #1
ID : 4
Format : UTF-8
Codec ID : S_TEXT/UTF8
Codec ID/Info : UTF-8 Plain Text
Title : UKR (by urij546724)
Language : Ukrainian
Default : Yes
Forced : No

Text #2
ID : 5
Format : UTF-8
Codec ID : S_TEXT/UTF8
Codec ID/Info : UTF-8 Plain Text
Title : ENG
Language : English
Default : No
Forced : No
Statistics Tags Issue : v41.0.0 ('Smarra') 64-bit 2020-07-17 18:44:46 / v6.1.0 ('Old Devil') built on Mar 4 2013 09:10:42 2020-07-24 10:18:59
FromStats_BitRate : 82
FromStats_Duration : 01:26:56.625000000
FromStats_FrameCount : 1733
FromStats_StreamSize : 53572

Text #3
ID : 6
Format : UTF-8
Codec ID : S_TEXT/UTF8
Codec ID/Info : UTF-8 Plain Text
Title : ENG SDH
Language : English
Default : No
Forced : No
Statistics Tags Issue : v41.0.0 ('Smarra') 64-bit 2020-07-17 18:44:46 / v6.1.0 ('Old Devil') built on Mar 4 2013 09:10:42 2020-07-24 10:18:59
FromStats_BitRate : 85
FromStats_Duration : 01:26:56.625000000
FromStats_FrameCount : 1785
FromStats_StreamSize : 55494
Скріншоти






За субтитри подяка п. urij546724
За доріжку подяка п.: urij546724, karvai0
Особиста подяка пану denixx за надану матеріальну допомогу на підтримку цього і майбутніх релізів.
Джерело:


Срібний реліз (на рейтинг впливає 50% завантаженого)
 Трекер:    Зареєстрований   

Завантажити / скачати фільм українською



відео для новачків



 Зареєстрований:   2020-07-24 13:26
 Розмір:   5.19 GB 
 Оцінка фільму:   10/10 (Голосів: 1)
   
Інші релізи
   Містер Сент Нік / Mr. St. Nick (2002) Ukr/Eng | sub Ukr urij546724  4 / 0   1.41 GB   2011-12-04 21:18 
Ваш часовий пояс: GMT + 2 Години

Нова тема   Відповісти