Убивства з листівками / The Postcard Killings (2020) Remux 1080p Ukr/Eng | Sub Eng

Нові коментарі

Нова тема   Відповісти
Автор Повідомлення
Anonymous 







2020-07-22 12:50  
Убивства з листівками / The Postcard Killings (2020) Remux 1080p Ukr/Eng | Sub Eng

Убивства з листівками / The Postcard Killings (2020) Remux 1080p Ukr/Eng | Sub Eng


Жанр: кримінальний, драма, детектив, трилер
Країна: Велика Британія, США



Кінокомпанія: Good Films Collective, Hindsight Media, K. JAM Media
Режисер: Даніс Тановіч / Danis Tanovic
Актори: Джефрі Дін Морґан / Jeffrey Dean Morgan, Фамке Янсен / Famke Janssen, Каш Джамбо / Cush Jumbo, Йоахім Круль / Joachim Król, Стівен Макінтош / Steven Mackintosh, Наомі Баттрік / Naomi Battrick, Руаірі О’Коннор / Ruairi O'Connor, Деніс О’Харе / Denis O'Hare, Лукас Луґрен / Lukas Loughran та інші.

Сюжет:
Париж, столиця Франції, куди мріє потрапити кожна закохана парочка. Дочка нью-йоркського детектива Джейкоба Кенона разом зі своїм нареченим також там опинилася… І залишилася там назавжди. Якийсь збочений маніяк-убивця просто поглумився над їхніми тілами, змусивши батька дівчини вийти на стежку війни. Такі ж злочини трапилися і в інших великих містах Європи — Копенґаґен, Стокгольм, Франкфурт, Лондон, Мадрид. І перед кожним убивством маніяк надсилає до місцевих ЗМІ листівку з цитатою із сонетів Шекспіра, як ніби оголошуючи про свою появу. Щоб запобігти подальшим убивствам, Джейкоб повинен розгадати систему, за якою діє цей естет. Не просто так же він зі своїх жертв імітує скульптури Мікеланджело чи картини Рафаеля.


Тривалість: 01:44:08
Якість: Remux 1080p

Відео:
кодек:
розмір кадру: 1920 x 1080
бітрейт: 20.9 мб/с

Аудіо # 1:
мова: українська
переклад: професійний дубльований
кодек: 2.0
бітрейт: 192 кб/с

Аудіо # 2:
мова: англійська
переклад: оригінал
кодек: -HD MA 5.1
бітрейт: 3163 кб/с

Субтитри: (Forced)
мова: українська
тип: програмні (м'які)
формат: *.srt

Субтитри:
мова: англійська
тип: програмні (м'які)
формат: *.srt
Info
Код:

General
Complete name                            : The Postcard Killings (2020) Remux 1080p [ukr, eng] [Video_Hurtom].
Format                                   :
Format version                           : Version 4
File size                                : 17.6 GiB
Duration                                 : 1 h 44 min
Overall bit rate mode                    : Variable
Overall bit rate                         : 24.1 Mb/s
Movie name                               : Убивства з листівками / The Postcard Killings (2020)
Encoded date                             : UTC 2020-07-22 09:25:08
Writing application                      : v30.1.0 ('Forever And More') 64-bit
Writing library                          : libebml v1.3.6 + v1.4.9
Cover                                    : Yes
Attachments                              : cover.jpg

Video
ID                                       : 1
Format                                   : AVC
Format/Info                              : Advanced Video Codec
Format profile                           : [email protected]
Format settings                          : CABAC / 4 Ref Frames
Format settings, CABAC                   : Yes
Format settings, RefFrames               : 4 frames
Codec ID                                 : V_MPEG4/ISO/AVC
Duration                                 : 1 h 44 min
Bit rate mode                            : Variable
Bit rate                                 : 20.9 Mb/s
Maximum bit rate                         : 36.0 Mb/s
Width                                    : 1 920 pixels
Height                                   : 1 080 pixels
Display aspect ratio                     : 16:9
Frame rate mode                          : Constant
Frame rate                               : 23.976 (24000/1001) FPS
Color space                              : YUV
Chroma subsampling                       : 4:2:0
Bit depth                                : 8 bits
Scan type                                : Progressive
Bits/(Pixel*Frame)                       : 0.420
Stream size                              : 15.2 GiB (86%)
Title                                    : grab777
Language                                 : English
Default                                  : Yes
Forced                                   : No

Audio #1
ID                                       : 2
Format                                   : AC-3
Format/Info                              : Audio Coding 3
Commercial name                          : Dolby Digital
Codec ID                                 : A_AC3
Duration                                 : 1 h 44 min
Bit rate mode                            : Constant
Bit rate                                 : 192 kb/s
Channel(s)                               : 2 channels
Channel layout                           : L R
Sampling rate                            : 48.0 kHz
Frame rate                               : 31.250 FPS (1536 SPF)
Bit depth                                : 16 bits
Compression mode                         : Lossy
Stream size                              : 144 MiB (1%)
Title                                    : 2.0 | 192
Language                                 : Ukrainian
Service kind                             : Complete Main
Default                                  : Yes
Forced                                   : No

Audio #2
ID                                       : 3
Format                                   : XLL
Format/Info                              : Digital Theater Systems
Commercial name                          : -HD Master Audio
Codec ID                                 : A_DTS
Duration                                 : 1 h 44 min
Bit rate mode                            : Variable
Bit rate                                 : 3 163 kb/s
Channel(s)                               : 6 channels
Channel layout                           : C L R Ls Rs LFE
Sampling rate                            : 48.0 kHz
Frame rate                               : 93.750 FPS (512 SPF)
Bit depth                                : 24 bits
Compression mode                         : Lossless
Stream size                              : 2.30 GiB (13%)
Title                                    : -HD MA 5.1 | 3163
Language                                 : English
Default                                  : No
Forced                                   : No

Text #1
ID                                       : 4
Format                                   : UTF-8
Codec ID                                 : S_TEXT/UTF8
Codec ID/Info                            : UTF-8 Plain Text
Duration                                 : 1 h 33 min
Bit rate                                 : 9 b/s
Count of elements                        : 132
Stream size                              : 6.59 KiB (0%)
Title                                    : Forced
Language                                 : Ukrainian
Default                                  : Yes
Forced                                   : No

Text #2
ID                                       : 5
Format                                   : UTF-8
Codec ID                                 : S_TEXT/UTF8
Codec ID/Info                            : UTF-8 Plain Text
Duration                                 : 1 h 35 min
Bit rate                                 : 54 b/s
Count of elements                        : 1175
Stream size                              : 37.8 KiB (0%)
Title                                    : SDH
Language                                 : English
Default                                  : No
Forced                                   : No

Menu
00:00:00.000                             : en:Chapter 01
00:10:55.196                             : en:Chapter 02
00:25:18.642                             : en:Chapter 03
00:36:15.673                             : en:Chapter 04
00:47:14.498                             : en:Chapter 05
00:58:21.998                             : en:Chapter 06
01:17:56.880                             : en:Chapter 07
01:37:36.267                             : en:Chapter 08
Скріншоти




Джерело: & eneyida.tv &
Особиста оцінка: 0 - не дивився


Золотий реліз (завантажене не впливає на рейтинг)
 Трекер:    Зареєстрований   

Завантажити / скачати фільм українською



відео для новачків



 Зареєстрований:   2020-07-22 12:50
 Розмір:   17.62 GB 
 Оцінка фільму:   9/10 (Голосів: 13)
   
nazar-pc 
Новенький


З нами з: 17.11.16
Востаннє: 23.10.20
Повідомлень: 12

2020-07-31 01:30  
Хороший фільм.
Стосовно перекладу багато сцен без перекладу чомусь виявилося.

Ваш часовий пояс: GMT + 2 Години

Нова тема   Відповісти