Майже герої / Almost Heroes (1998) 720p Ukr/Eng | Sub Eng

Нові коментарі

Нова тема   Відповісти
Автор Повідомлення
Anonymous 







2020-07-22 12:38  
Майже герої / Almost Heroes (1998) 720p Ukr/Eng | Sub Eng

Майже герої / Almost Heroes (1998) 720p Ukr/Eng | Sub Eng


Жанр: комедія, пригодницький
Країна: США



Кінокомпанія: Turner Pictures, DiNovi Pictures
Режисер: Крістофер Гест / Christopher Guest
Актори: Кріс Фарлі / Chris Farley /, Меттью Перрі / Matthew Perry, Юджин Ліван / Eugene Levy /, Ліза Барбаскіа / Lisa Barbuscia /, Боким Вудбайн / Bokeem Woodbine /, Беррі Дель Шерман / Barry Del Sherman /, Роберт Тайттор / Robert Tittor / , Франклін Ковер / Franklin Cover /, Девід Пекер / David Packer

Сюжет:
Для дослідження нових територій молодій державі Сполучені Штати Америки потрібні відважні першопрохідці, що не бояться ризикувати і готові до подвигів. Словом - герої. Ну, або майже герої ...


Тривалість: 01:30:19
Якість: 720p
Відео:
кодек:
розмір кадру: 1278х720
бітрейт: 4173 кб/с

Аудіо # 1:
мова: українська
переклад: двоголосий закадровий
кодек: 2.0
бітрейт: 192 кб/с

Аудіо # 2:
мова: англійська
переклад: оригінал
кодек: 5.1
бітрейт: 448 кб/с

Субтитри:
мова: англійська
тип: програмні (м'які)
формат: *.srt
Info
General
Unique ID : 215738915992504692370302188031499227855 (0xA24DCDC8FADE35BE8511264E4FEAD2CF)
Complete name : E:\Toloka\2020\Almost Heroes (1998) 720p.
Format :
Format version : Version 4
File size : 3.10 GiB
Duration : 1 h 30 min
Overall bit rate : 4 911 kb/s
Encoded date : UTC 2020-07-22 09:29:11
Writing application : v6.1.0 ('Old Devil') built on Mar 4 2013 09:10:42
Writing library : libebml v1.3.0 + v1.4.0

Video
ID : 1
Format : AVC
Format/Info : Advanced Video Codec
Format profile : [email protected]
Format settings : 2 Ref Frames
Format settings, CABAC : No
Format settings, Reference : 2 frames
Format settings, GOP : N=1
Codec ID : V_MPEG4/ISO/AVC
Duration : 1 h 30 min
Bit rate : 4 173 kb/s
Width : 1 278 pixels
Height : 720 pixels
Display aspect ratio : 16:9
Frame rate mode : Constant
Frame rate : 23.976 FPS
Color space : YUV
Chroma subsampling : 4:2:0
Bit depth : 8 bits
Scan type : Progressive
Bits/(Pixel*Frame) : 0.189
Stream size : 2.63 GiB (85%)
Language : English
Default : Yes
Forced : No
Color range : Limited
Color primaries : BT.709
Transfer characteristics : BT.709
Matrix coefficients : BT.709
Duration_Source : General_Duration

Audio #1
ID : 2
Format : AC-3
Format/Info : Audio Coding 3
Commercial name : Dolby Digital
Codec ID : A_AC3
Duration : 1 h 30 min
Bit rate mode : Constant
Bit rate : 192 kb/s
Channel(s) : 2 channels
Channel layout : L R
Sampling rate : 48.0 kHz
Frame rate : 31.250 FPS (1536 SPF)
Compression mode : Lossy
Stream size : 124 MiB (4%)
Title : UKR (Новий)
Language : Ukrainian
Service kind : Complete Main
Default : Yes
Forced : Yes
Duration_Source : General_Duration

Audio #2
ID : 3
Format : AC-3
Format/Info : Audio Coding 3
Commercial name : Dolby Digital
Codec ID : A_AC3
Duration : 1 h 30 min
Bit rate mode : Constant
Bit rate : 448 kb/s
Channel(s) : 6 channels
Channel layout : L R C LFE Ls Rs
Sampling rate : 48.0 kHz
Frame rate : 31.250 FPS (1536 SPF)
Compression mode : Lossy
Stream size : 289 MiB (9%)
Title : ENG
Language : English
Service kind : Complete Main
Default : No
Forced : No
Duration_Source : General_Duration

Text
ID : 4
Format : UTF-8
Codec ID : S_TEXT/UTF8
Codec ID/Info : UTF-8 Plain Text
Title : eng
Language : English
Default : No
Forced : No

Menu
00:00:00.000 : en:Chapter 1
00:02:29.000 : en:Chapter 2
00:05:39.000 : en:Chapter 3
00:10:20.000 : en:Chapter 4
00:15:03.000 : en:Chapter 5
00:21:53.000 : en:Chapter 6
00:26:03.000 : en:Chapter 7
00:33:25.000 : en:Chapter 8
00:37:04.000 : en:Chapter 9
00:41:29.000 : en:Chapter 10
00:49:48.000 : en:Chapter 11
00:52:18.000 : en:Chapter 12
01:01:20.000 : en:Chapter 13
01:03:57.000 : en:Chapter 14
01:06:31.000 : en:Chapter 15
01:11:16.000 : en:Chapter 16
01:17:03.000 : en:Chapter 17
01:19:44.000 : en:Chapter 18
01:23:58.000 : en:Chapter 19
01:26:21.000 : en:Chapter 20
Скріншоти








За доріжку подяка п. bodia87
Особиста подяка пану denixx за надану матеріальну допомогу на підтримку цього і майбутніх релізів.
Джерело:


Срібний реліз (на рейтинг впливає 50% завантаженого)
 Трекер:    Зареєстрований   

Завантажити / скачати фільм українською



відео для новачків



 Зареєстрований:   2020-07-22 12:38
 Розмір:   3.1 GB 
 Оцінка фільму:   9/10 (Голосів: 7)
   
Інші релізи
   Майже герої / Almost Heroes (1998) bodia87  4 / 0   1.38 GB   2013-07-15 21:09 
Ваш часовий пояс: GMT + 2 Години

Нова тема   Відповісти