Напролом / The Hard Way (1991) AVC 2xUkr/Eng | Sub Eng

Нові коментарі

Нова тема   Відповісти
Автор Повідомлення
staf777 
Відео Гуртом - підтримка та поширення
Відео Гуртом - підтримка та поширення


З нами з: 16.11.16
Востаннє: 05.08.20
Повідомлень: 3928

2020-07-22 10:17  
Напролом / The Hard Way (1991) AVC 2xUkr/Eng | Sub Eng
Напролом / The Hard Way (1991) AVC 2xUkr/Eng | Sub Eng
Альтернативна обкладинка


повнорозмірні зображення відкриються по кліку (з натиснутим CTRL чи кліком середньою кнопкою мишки - у новій вкладці)

Жанр: бойовик, комедія, кримінальний
Країна: США



Кінокомпанія: Universal Pictures, Badham-Cohen Group
Режисер: Джон Бедем / John Badham
Актори: Майкл Джей Фокс / Michael J. Fox, Джеймс Вудс / James Woods, Стівен Ленг / Stephen Lang, Аннабелла Шіорра / Annabella Sciorra, Джон Каподіче / John Capodice, Луїс Гузман / Luis Guzmán, Л.Л. Кул Джей / LL Cool J, Мері Мара / Mary Mara, Делрой Ліндо / Delroy Lindo, Конрад Робертс / Conrad Roberts, Пенні Маршалл / Penny Marshall, Крістіна Річчі / Christina Ricci та інші

Сюжет:
Голлівудський актор Нік Ленг хоче зіграти роль відважного детектива. Але для цього йому потрібно дізнатися, як бути поліцейськім в реальному житті. По телевізору Нік бачить лейтенанта Джона Мосса який дає інтерв'ю після того, як упустив серійного вбивцю. Щоб якнайкраще дізнатися про свій новий персонаж, Ленг відправляється в Нью-Йорк, де знайомиться з Моссом, який повинен допомогти йому освоїти поліцейські прийоми. Всупереч наказам начальства Джон продовжує полювання за небезпечним маніяком, а в цей час голлівудська знаменитість всіляко плутається у нього під ногами.


Тривалість: 01:50:44
Якість: AVC
Відео:
кодек:
розмір кадру: 1024x436
бітрейт: 2 349 кб/с

Аудіо # 1:
мова: українська
переклад: багатоголосий закадровий
кодек: 2.0 [стерео]
бітрейт: 192 кб/с
примітка: ім'я персонажа Party Crasher озвучено як "Кайфолом"

Аудіо # 2:
мова: українська
переклад: двоголосий закадровий
кодек: 2.0
бітрейт: 192 кб/с
ролі озвучили: Олег Лепенець і Наталя Ярошенко
примітка: ім'я персонажа Party Crasher озвучено як "Лейтенант Гуляка"

Аудіо # 3:
мова: англійська
переклад: оригінал
кодек: 2.0
бітрейт: 448 кб/с

Субтитри # 1-2:
мова: англійська (повні, SDH)
тип: програмні (м'які)
формат: *.srt

Збережено оригінальні розділи, як на Blu-ray
Info
Код:
General
Unique ID                   : 265443994463322223645577096820642143788 (0xC7B2A75C20055D133FF69EF879B5DE2C)
Complete name               : Z:\Фільми AVC\Комедія\The Hard Way (1991) [2xUkr,Eng sub.Eng] AVC [Hurtom].
Format                      :
Format version              : Version 4
File size                   : 2.46 GiB
Duration                    : 1 h 50 min
Overall bit rate            : 3 183 kb/s
Movie name                  : Напролом / The Hard Way (1991) [2xUkr,Eng sub.Eng] AVC [Hurtom]
Released date               : 1991
Encoded date                : UTC 2020-07-24 14:53:35
Writing application         : v46.0.0 ('No Deeper Escape') 64-bit
Writing library             : libebml v1.3.10 + v1.5.2
Cover                       : Yes
Comment                     : http://www.imdb.com/title/tt0102004/
Attachments                 : cover.jpg
ARTIST                      : Майкл Джей Фокс / Michael J. Fox, Джеймс Вудс / James Woods, Стівен Ленг / Stephen Lang, Аннабелла Шіорра / Annabella Sciorra, Джон Каподіче / John Capodice, Луїс Гузман / Luis Guzmán, Л.Л. Кул Джей / LL Cool J, Мері Мара / Mary Mara, Делрой Ліндо / Delroy Lindo, Конрад Робертс / Conrad Roberts, Пенні Маршалл / Penny Marshall, Крістіна Річчі / Christina Ricci та інші
DIRECTOR                    : Джон Бедем / John Badham
GENRE                       : бойовик, комедія, кримінальний
SYNOPSIS                    : Голлівудський актор Нік Ленг (Майкл Джей Фокс) хоче зіграти роль відважного детектива. Але для цього йому потрібно дізнатися, як бути поліцейськім в реальному житті. По телевізору Нік бачить лейтенанта Джона Мосса (Джеймс Вудс) який дає інтерв'ю після того, як упустив серійного вбивцю (Стівен Ленг). Щоб якнайкраще дізнатися про свій новий персонаж, Ленг відправляється в Нью-Йорк, де знайомиться з Моссом, який повинен допомогти йому освоїти поліцейські прийоми. Всупереч наказам начальства Джон продовжує полювання за небезпечним маніяком, а в цей час голлівудська знаменитість всіляко плутається у нього під ногами...
Url                         : https://toloka.to/t83053

Video
ID                          : 1
Format                      : AVC
Format/Info                 : Advanced Video Codec
Format profile              : [email protected]
Format settings             : CABAC / 9 Ref Frames
Format settings, CABAC      : Yes
Format settings, Reference  : 9 frames
Codec ID                    : V_MPEG4/ISO/AVC
Duration                    : 1 h 50 min
Bit rate                    : 2 349 kb/s
Width                       : 1 024 pixels
Height                      : 436 pixels
Display aspect ratio        : 2.35:1
Frame rate mode             : Constant
Frame rate                  : 23.976 (24000/1001) FPS
Color space                 : YUV
Chroma subsampling          : 4:2:0
Bit depth                   : 8 bits
Scan type                   : Progressive
Bits/(Pixel*Frame)          : 0.219
Stream size                 : 1.82 GiB (74%)
Title                       : Напролом / The Hard Way (1991) AVC
Writing library             : core 146 r2538 121396c
Encoding settings           : cabac=1 / ref=9 / deblock=1:-3:-3 / analyse=0x3:0x113 / me=umh / subme=10 / psy=1 / psy_rd=1.00:0.15 / mixed_ref=1 / me_range=32 / chroma_me=1 / trellis=2 / 8x8dct=1 / cqm=0 / deadzone=21,11 / fast_pskip=1 / chroma_qp_offset=-3 / threads=6 / lookahead_threads=1 / sliced_threads=0 / nr=0 / decimate=1 / interlaced=0 / bluray_compat=0 / constrained_intra=0 / bframes=11 / b_pyramid=2 / b_adapt=2 / b_bias=0 / direct=1 / weightb=1 / open_gop=0 / weightp=2 / keyint=230 / keyint_min=23 / scenecut=40 / intra_refresh=0 / rc_lookahead=40 / rc=crf / mbtree=0 / crf=21.0 / qcomp=0.60 / qpmin=0 / qpmax=69 / qpstep=4 / vbv_maxrate=40000 / vbv_bufsize=50000 / crf_max=0.0 / nal_hrd=none / filler=0 / ip_ratio=1.40 / pb_ratio=1.30 / aq=1:1.00
Language                    : English
Default                     : Yes
Forced                      : No

Audio #1
ID                          : 2
Format                      : AC-3
Format/Info                 : Audio Coding 3
Commercial name             : Dolby Digital
Codec ID                    : A_AC3
Duration                    : 1 h 50 min
Bit rate mode               : Constant
Bit rate                    : 192 kb/s
Channel(s)                  : 2 channels
Channel layout              : L R
Sampling rate               : 48.0 kHz
Frame rate                  : 31.250 FPS (1536 SPF)
Compression mode            : Lossy
Stream size                 : 152 MiB (6%)
Title                       : MVO [Volya Cine+ Legend] 2.0 [stereo] 192 Kbps [Hurtom-igor911, Sando7]
Language                    : Ukrainian
Service kind                : Complete Main
Default                     : Yes
Forced                      : Yes

Audio #2
ID                          : 3
Format                      : AC-3
Format/Info                 : Audio Coding 3
Commercial name             : Dolby Digital
Codec ID                    : A_AC3
Duration                    : 1 h 50 min
Bit rate mode               : Constant
Bit rate                    : 192 kb/s
Channel(s)                  : 2 channels
Channel layout              : L R
Sampling rate               : 48.0 kHz
Frame rate                  : 31.250 FPS (1536 SPF)
Compression mode            : Lossy
Stream size                 : 152 MiB (6%)
Title                       : DVO [Novyj] 2.0 192 Kbps [Hurtom-Givi, Merdif, igor911]
Language                    : Ukrainian
Service kind                : Complete Main
Default                     : No
Forced                      : No

Audio #3
ID                          : 4
Format                      : AC-3
Format/Info                 : Audio Coding 3
Commercial name             : Dolby Digital
Codec ID                    : A_AC3
Duration                    : 1 h 50 min
Bit rate mode               : Constant
Bit rate                    : 448 kb/s
Channel(s)                  : 2 channels
Channel layout              : L R
Sampling rate               : 48.0 kHz
Frame rate                  : 31.250 FPS (1536 SPF)
Compression mode            : Lossy
Stream size                 : 355 MiB (14%)
Title                       : Original, 2.0 448 Kbps
Language                    : English
Service kind                : Complete Main
Default                     : No
Forced                      : No

Text #1
ID                          : 5
Format                      : UTF-8
Codec ID                    : S_TEXT/UTF8
Codec ID/Info               : UTF-8 Plain Text
Duration                    : 1 h 46 min
Bit rate                    : 82 b/s
Count of elements           : 2059
Stream size                 : 64.5 KiB (0%)
Title                       : Eng full
Language                    : English
Default                     : No
Forced                      : No

Text #2
ID                          : 6
Format                      : UTF-8
Codec ID                    : S_TEXT/UTF8
Codec ID/Info               : UTF-8 Plain Text
Duration                    : 1 h 48 min
Bit rate                    : 85 b/s
Count of elements           : 2247
Stream size                 : 68.1 KiB (0%)
Title                       : Eng SDH
Language                    : English
Default                     : No
Forced                      : No

Menu
00:00:00.000                : en:The Party Crasher (Main Titles)
00:11:02.161                : en:Nick Lang
00:16:26.735                : en:Nick, AKA Ray
00:28:26.496                : en:John Moss on the Job
00:39:46.092                : en:A Bad Review
00:49:03.106                : en:Out for the Evening
00:55:49.054                : en:Business as Usual
01:05:23.836                : en:Trouble on the Train
01:10:38.484                : en:A Mistake
01:19:40.692                : en:On a Stakeout
01:25:19.072                : en:At the Movies
01:30:45.314                : en:Nick and the Carjacker
01:33:30.771                : en:John and Susan Talk
01:38:31.697                : en:Looking for Susan
01:45:44.796                : en:You Got What You Wanted
01:47:17.013                : en:End Titles
01:50:43.803                : en:End


Джерело: &
Аудіо #1: запис з Воля Cine+ Legend - Sando7, синхронізація - igor911; аудіо #2: вихідна українська доріжка з Нового - Givi та Merdiff, синхронізація під - igor911, постер - hellforces, допомога у вдосконаленні релізу - 21jumpstreet, поіменовані оригінальні розділи - chapterdb.org.


Срібний реліз (на рейтинг впливає 50% завантаженого)
 Трекер:    Зареєстрований   

Завантажити / скачати фільм українською



відео для новачків



 Зареєстрований:   2020-07-24 18:25
 Розмір:   2.46 GB 
 Оцінка фільму:   9.1/10 (Голосів: 11)
   
Інші релізи
   Напролом / The Hard Way (1991) 1080p 2xUkr/Eng | Sub Eng PatataFrita  2 / 0   10.43 GB   2020-04-30 08:16 
   Напролом / The Hard Way (1991) Remux 1080p 2хUkr/Eng | Sub Eng MakRA  0 / 0   23.88 GB   2019-07-18 13:45 
   Напролом / The Hard Way (1991) 720p 2xUkr/Eng | Sub Eng igor911  4 / 0   4.03 GB   2017-07-21 11:17 
   Напролом / The Hard Way (1991) 2xUkr/Eng | Sub Eng igor911  3 / 0   2.03 GB   2017-07-21 10:31 
   Напролом / The Hard Way (1991) [MP4, 640x] apvAltisimo  0 / 0   738 MB   2016-12-27 18:33 
bot 
робот


З нами з: 30.09.07
Востаннє: 26.05.05
Повідомлень: 25168

2020-07-24 18:25  
Тему перенесено з Анонси релізів до форуму Фільми


staf777

robotron005 
Відео Гуртом - фільмокрай
Відео Гуртом - фільмокрай


З нами з: 29.01.09
Востаннє: 05.08.20
Повідомлень: 3347

2020-07-24 18:30  
У розшуку запис з 1+1, де всі чоловічі ролі озвучив - Георгій Гавриленко

Ваш часовий пояс: GMT + 2 Години

Нова тема   Відповісти