Особистий охоронець (Охоронець) / The Bodyguard (1992) AVC 3xUkr/Eng | Sub Eng

Нові коментарі

Нова тема   Відповісти
Автор Повідомлення
staf777 
Відео Гуртом - підтримка та поширення
Відео Гуртом - підтримка та поширення


З нами з: 16.11.16
Востаннє: 10.08.20
Повідомлень: 3934

2020-07-22 07:54  
Особистий охоронець (Охоронець) / The Bodyguard (1992)
AVC 3xUkr/Eng | Sub Eng


Особистий охоронець (Охоронець) / The Bodyguard (1992) AVC 3xUkr/Eng | Sub Eng
Жанр: драма, трилер, мелодрама, музичний
Країна: США



Кінокомпанія: Kasdan Pictures, Tig Productions, Warner Bros. Pictures
Режисер: Мік Джексон / Mick Jackson
Актори: Кевін Костнер / Kevin Costner, Вітні Г'юстон / Whitney Houston, Гарі Кемп / Gary Kemp, Білл Коббс / Bill Cobbs, Ральф Вайт / Ralph Waite, Томас Арана / Tomas Arana, Мішель Ламар Річардс / Michele Lamar Richards, Майк Старр / Mike Starr, Крістофер Бірт / Christopher Birt, Девон Ніксон / DeVaughn Nixon, Джеррі Беммен / Gerry Bamman, Джо Урла / Joe Urla, Тоні Пірс / Tony Pierce, Чарльз Кітінг / Charles Keating, Роберт Вул / Robert Wuhl, Деббі Рейнолдс / Debbie Reynolds та інші.

Сюжет:
Френк Фармер, співробітник служби безпеки президента Рейгана, відчуває себе частково винним в тому, що в його відсутність на президента було скоєно замах. Він покидає службу і наймається пряцювати охоронцем темношкірої співачки та актриси Рейчел Меррон, яка постійно отримує листи з погрозами.


Тривалість: 02:09:21
Якість: AVC

Відео:
кодек:
розмір кадру: 1024x576
бітрейт: 3448 кб/с

Аудіо # 1:
мова: українська
переклад: багатоголосий закадровий | Так Треба Продакшн на замовлення
ролі озвучили: Олег Стальчук, Роман Семисал і два голоси жіночих
кодек: 5.1
бітрейт: 384 кб/с

Аудіо # 2:
мова: українська
переклад: двоголосий закадровий | Студія за сприяння компанії Сінемакс
ролі озвучили: Лариса Руснак і Олесь Гімбаржевський
кодек: 2.0
бітрейт: 192 кб/с

Аудіо # 3:
мова: українська
переклад: двоголосий закадровий
ролі озвучили: Михайло Жонін і Лідія Муращенко
кодек: 5.1
бітрейт: 384 кб/с

Аудіо # 4:
мова: англійська
переклад: оригінал
кодек: 5.1
бітрейт: 448 кб/с

Субтитри:
мова: англійська
тип: програмні (м'які)
формат: *.srt

Info
General
Unique ID : 336139272271503078189430316157711271545 (0xFCE211A9ABBEDDD679D902E35211C679)
Complete name : Z:\The Bodyguard (1992) AVC [3xukr, eng] [Hurtom].
Format :
Format version : Version 4
File size : 4.39 GiB
Duration : 2 h 9 min
Overall bit rate : 4 858 kb/s
Movie name : Особистий охоронець (Охоронець) / The Bodyguard (1992) / AVC [3xukr, eng] [Hurtom]
Encoded date : UTC 2020-07-22 05:14:30
Writing application : v46.0.0 ('No Deeper Escape') 64-bit
Writing library : libebml v1.3.10 + v1.5.2
Cover : Yes
Attachments : cover.jpg

Video
ID : 1
Format : AVC
Format/Info : Advanced Video Codec
Format profile : [email protected]
Format settings : CABAC / 9 Ref Frames
Format settings, CABAC : Yes
Format settings, Reference : 9 frames
Codec ID : V_MPEG4/ISO/AVC
Duration : 2 h 9 min
Bit rate : 3 448 kb/s
Width : 1 024 pixels
Height : 576 pixels
Display aspect ratio : 16:9
Frame rate mode : Constant
Frame rate : 23.976 (24000/1001) FPS
Color space : YUV
Chroma subsampling : 4:2:0
Bit depth : 8 bits
Scan type : Progressive
Bits/(Pixel*Frame) : 0.244
Stream size : 3.11 GiB (71%)
Title : Rip by 0ptimus
Writing library : core 133 r2334 a3ac64b
Encoding settings : cabac=1 / ref=9 / deblock=1:-3:-3 / analyse=0x3:0x113 / me=umh / subme=11 / psy=1 / psy_rd=1.00:0.20 / mixed_ref=1 / me_range=48 / chroma_me=1 / trellis=2 / 8x8dct=1 / cqm=0 / deadzone=21,11 / fast_pskip=0 / chroma_qp_offset=-3 / threads=4 / lookahead_threads=1 / sliced_threads=0 / nr=0 / decimate=0 / interlaced=0 / bluray_compat=0 / constrained_intra=0 / bframes=10 / b_pyramid=2 / b_adapt=2 / b_bias=0 / direct=3 / weightb=1 / open_gop=0 / weightp=2 / keyint=240 / keyint_min=23 / scenecut=40 / intra_refresh=0 / rc_lookahead=40 / rc=2pass / mbtree=0 / bitrate=3448 / ratetol=1.0 / qcomp=0.60 / qpmin=0 / qpmax=69 / qpstep=4 / cplxblur=20.0 / qblur=0.5 / vbv_maxrate=50000 / vbv_bufsize=50000 / nal_hrd=none / ip_ratio=1.40 / pb_ratio=1.30 / aq=1:1.00
Language : English
Default : Yes
Forced : Yes

Audio #1
ID : 2
Format : AC-3
Format/Info : Audio Coding 3
Commercial name : Dolby Digital
Codec ID : A_AC3
Duration : 2 h 9 min
Bit rate mode : Constant
Bit rate : 384 kb/s
Channel(s) : 6 channels
Channel layout : L R C LFE Ls Rs
Sampling rate : 48.0 kHz
Frame rate : 31.250 FPS (1536 SPF)
Compression mode : Lossy
Stream size : 355 MiB (8%)
Title : [UKR-MVO-INTER]
Language : Ukrainian
Service kind : Complete Main
Default : Yes
Forced : Yes

Audio #2
ID : 3
Format : AC-3
Format/Info : Audio Coding 3
Commercial name : Dolby Digital
Codec ID : A_AC3
Duration : 2 h 9 min
Bit rate mode : Constant
Bit rate : 192 kb/s
Channel(s) : 2 channels
Channel layout : L R
Sampling rate : 48.0 kHz
Frame rate : 31.250 FPS (1536 SPF)
Compression mode : Lossy
Stream size : 178 MiB (4%)
Title : [UKR-DVO-1+1]
Language : Ukrainian
Service kind : Complete Main
Default : No
Forced : No

Audio #3
ID : 4
Format : AC-3
Format/Info : Audio Coding 3
Commercial name : Dolby Digital
Codec ID : A_AC3
Duration : 2 h 9 min
Bit rate mode : Constant
Bit rate : 384 kb/s
Channel(s) : 6 channels
Channel layout : L R C LFE Ls Rs
Sampling rate : 48.0 kHz
Frame rate : 31.250 FPS (1536 SPF)
Compression mode : Lossy
Stream size : 355 MiB (8%)
Title : [UKR-DVO-H]
Language : Ukrainian
Service kind : Complete Main
Default : No
Forced : No

Audio #4
ID : 5
Format : AC-3
Format/Info : Audio Coding 3
Commercial name : Dolby Digital
Codec ID : A_AC3
Duration : 2 h 9 min
Bit rate mode : Constant
Bit rate : 448 kb/s
Channel(s) : 6 channels
Channel layout : L R C LFE Ls Rs
Sampling rate : 48.0 kHz
Frame rate : 31.250 FPS (1536 SPF)
Compression mode : Lossy
Stream size : 414 MiB (9%)
Title : 5.1 @ 448 kbps
Language : English
Service kind : Complete Main
Default : No
Forced : No

Text
ID : 6
Format : UTF-8
Codec ID : S_TEXT/UTF8
Codec ID/Info : UTF-8 Plain Text
Duration : 2 h 8 min
Bit rate : 52 b/s
Count of elements : 1495
Stream size : 49.0 KiB (0%)
Language : English
Default : No
Forced : No

Menu
00:00:00.000 : en:On and off the job (Credits)
00:03:48.562 : en:Recruiting the best.
00:05:22.364 : en:My disguise; meeting the client
00:12:46.307 : en:Fan letter ("I Have Nothing")
00:17:19.247 : en:The person who always gets hit
00:19:35.132 : en:Precautions; the ego wall.
00:23:45.424 : en:Under surveillance.
00:26:13.697 : en:Strained relations.
00:30:11.476 : en:Run to You.
00:31:23.507 : en:A night out.
00:35:30.754 : en:Rachel's time ("Queen of the Night").
00:38:39.776 : en:Pandemonium.
00:42:08.067 : en:Playing with knives.
00:44:09.272 : en:Getting fixed up.
00:46:35.668 : en:A fan's trophies.
00:47:39.148 : en:Farmer's kind of date (Yojimbo clip).
00:51:51.692 : en:"I Will Always Love You" (John Doe); "I'll protect you."
00:54:09.121 : en:Sword's point; "I can't protect you like this."
01:01:46.077 : en:On the job in Miami (I Have Nothing).
01:04:40.418 : en:The party; an ex-colleague.
01:11:01.966 : en:Insecure
01:14:17.912 : en:"I'm afraid."
01:17:41.115 : en:Country retreat; the Reagan thing.
01:20:55.017 : en:Dinner; next moves ("You didn't say no to the boss").
01:26:19.758 : en:Jesus Love Me; a saboteur doesn't.
01:30:13.033 : en:Confession in the dark.
01:34:01.010 : en:Shots in the dark.
01:36:18.898 : en:An arrest is made.
01:37:12.118 : en:Sorrow; "I'm afraid of not being there."
01:40:27.355 : en:"I have you to protect me."
01:43:40.464 : en:Arrival at the Oscars.
01:47:27.858 : en:Backstage reunion.
01:48:43.809 : en:"This is the night" ("I Have Nothing").
01:53:37.352 : en:"I know who it is."
01:56:02.956 : en:The winner takes the stage.
01:59:26.159 : en:Under control.
02:00:54.581 : en:"I Will Always Love You"
02:03:34.407 : en:Guiding and protecting; End Credits (Queen of the Night).
Скріншоти


Подяка SsashI, Technomate та _oles за українські доріжки

Джерело: &
Особиста оцінка: 8 - мені сподобалося
Особистий охоронець (Охоронець) / The Bodyguard (1992) AVC 3xUkr/Eng | Sub Eng Особистий охоронець (Охоронець) / The Bodyguard (1992) AVC 3xUkr/Eng | Sub Eng


Срібний реліз (на рейтинг впливає 50% завантаженого)
 Трекер:    Зареєстрований   

Завантажити / скачати фільм українською



відео для новачків



 Зареєстрований:   2020-07-22 18:26
 Розмір:   4.39 GB 
 Оцінка фільму:   9.2/10 (Голосів: 16)
   
bot 
робот


З нами з: 30.09.07
Востаннє: 26.05.05
Повідомлень: 25217

2020-07-22 18:25  
Тему перенесено з Анонси релізів до форуму Фільми


staf777

подвох 
Частий відвідувач


З нами з: 29.03.18
Востаннє: 10.08.20
Повідомлень: 44

2020-07-23 22:38  
з чого він став особистим охоронцем?переіменовуєм усе?
Ваш часовий пояс: GMT + 2 Години

Нова тема   Відповісти