Слизняк / Slither (2006) 1080p Ukr/Eng | Sub Eng

Нові коментарі

Нова тема   Відповісти
Автор Повідомлення
Anonymous 







2020-07-22 01:51  
Слизняк / Slither (2006) 1080p Ukr/Eng | Sub Eng


Альтернативні постери:






Жанр: Комедія, жахи
Країна: Канада, США



Кінокомпанія: Gold Circle Films
Режисер: Джеймс Ганн / James Gunn
Актори: Натан Філліон, Елізабет Бенкс, Грегг Генрі та інші

Сюжет:
Грант Грант, житель маленького містечка Уїлсі, знаходить в лісі метеорит, що впав. З цього космічного тіла викидається якась субстанція, яка тут же поселяється в грудях Гранту. Після цього з ним починають відбуватися дивні метаморфози.
Він постійно відчуває сильний голод, а його тіло піддається трансформаціям. Коли ж Грант усвідомлює своє нове призначення, він кидається перетворювати інших мешканців містечка в таких же, як і він, ненаситних зомбі.


Тривалість: 01:35:43
Якість: 1080p

Відео:
Кодек:
Розмір кадру: 1920 x 1040
Бітрейт: 18.0 Мбіт/с

Аудіо #1:
Мова: українська
Переклад: багатоголосий закадровий [1+1]

Кодек: 5.1
Бітрейт: 384 Кбіт/с

Аудіо #2:
Мова: англійська
Переклад: Оригінал
Кодек: 5.1
Бітрейт: 1509 Кбіт/с

Субтитри:
Мова: англійська | Повні
Тип: програмні (м'які)
Формат: *.srt

Info


General
Unique ID : 52302241378836491505709622982320134112 (0x27590B97AACA47A310AE09C17EC917E0)
Format :
Format version : Version 4
File size : 13.3 GiB
Duration : 1 h 35 min
Overall bit rate : 19.9 Mb/s
Movie name : Slither (2006) 1080p [UkrEng][SubEng] [Hurtom]
Encoded date : UTC 2020-07-21 22:10:31
Writing application : v46.0.0 ('No Deeper Escape') 64-bit
Writing library : libebml v1.3.10 + v1.5.2
Attachments : poster_ukr1.jpg / poster_ukr2.jpg / poster_eng.jpg

Video
ID : 1
Format : AVC
Format/Info : Advanced Video Codec
Format profile : [email protected]
Format settings : CABAC / 4 Ref Frames
Format settings, CABAC : Yes
Format settings, Reference fra : 4 frames
Codec ID : V_MPEG4/ISO/AVC
Duration : 1 h 35 min
Bit rate : 18.0 Mb/s
Width : 1 920 pixels
Height : 1 040 pixels
Display aspect ratio : 1.85:1
Frame rate mode : Constant
Frame rate : 23.976 (24000/1001) FPS
Color space : YUV
Chroma subsampling : 4:2:0
Bit depth : 8 bits
Scan type : Progressive
Bits/(Pixel*Frame) : 0.376
Stream size : 12.0 GiB (90%)
Title : Slither (2006) 1080p
Writing library : core 130 r2273 b3065e6
Encoding settings : cabac=1 / ref=4 / deblock=1:-3:-3 / analyse=0x3:0x113 / me=umh / subme=11 / psy=1 / psy_rd=1.00:0.05 / mixed_ref=1 / me_range=32 / chroma_me=1 / trellis=2 / 8x8dct=1 / cqm=0 / deadzone=21,11 / fast_pskip=0 / chroma_qp_offset=-5 / threads=12 / lookahead_threads=3 / sliced_threads=0 / nr=0 / decimate=0 / interlaced=0 / bluray_compat=0 / constrained_intra=0 / bframes=10 / b_pyramid=2 / b_adapt=2 / b_bias=0 / direct=3 / weightb=1 / open_gop=0 / weightp=2 / keyint=250 / keyint_min=23 / scenecut=40 / intra_refresh=0 / rc_lookahead=85 / rc=2pass / mbtree=1 / bitrate=18000 / ratetol=1.0 / qcomp=0.60 / qpmin=0 / qpmax=69 / qpstep=4 / cplxblur=20.0 / qblur=0.5 / ip_ratio=1.40 / aq=1:0.90
Language : English
Default : Yes
Forced : No

Audio #1
ID : 2
Format : AC-3
Format/Info : Audio Coding 3
Commercial name : Dolby Digital
Codec ID : A_AC3
Duration : 1 h 35 min
Bit rate mode : Constant
Bit rate : 384 kb/s
Channel(s) : 6 channels
Channel layout : L R C LFE Ls Rs
Sampling rate : 48.0 kHz
Frame rate : 31.250 FPS (1536 SPF)
Compression mode : Lossy
Delay relative to video : 24 ms
Stream size : 263 MiB (2%)
Title : MVO [1+1] 5.1 @ 384 Кбіт/с
Language : Ukrainian
Service kind : Complete Main
Default : Yes
Forced : No

Audio #2
ID : 3
Format :
Format/Info : Digital Theater Systems
Codec ID : A_DTS
Duration : 1 h 35 min
Bit rate mode : Constant
Bit rate : 1 509 kb/s
Channel(s) : 6 channels
Channel layout : C L R Ls Rs LFE
Sampling rate : 48.0 kHz
Frame rate : 93.750 FPS (512 SPF)
Bit depth : 16 bits
Compression mode : Lossy
Stream size : 1.01 GiB (8%)
Title : [Оригінал] 5.1 @ 1509 Кбіт/с
Language : English
Default : No
Forced : No

Text
ID : 4
Format : UTF-8
Codec ID : S_TEXT/UTF8
Codec ID/Info : UTF-8 Plain Text
Duration : 1 h 23 min
Bit rate : 37 b/s
Count of elements : 751
Stream size : 22.7 KiB (0%)
Title : Повні
Language : English
Default : No
Forced : No
Скріншоти








Джерело:


 Трекер:    Зареєстрований   

Завантажити / скачати фільм українською



відео для новачків



 Зареєстрований:   2020-07-22 01:51
 Розмір:   13.29 GB 
 Оцінка фільму:   10/10 (Голосів: 1)
   
Інші релізи
   Слизняк / Slither (2006) MAKAPOHHIK  3 / 0   1.45 GB   2009-12-25 14:23 
taksist 
VIP


З нами з: 10.12.12
Востаннє: 26.09.20
Повідомлень: 437

2020-07-22 07:52  
агов, дебіли - слимак а не слизняк.
Мицько 
Новенький


З нами з: 21.09.17
Востаннє: 25.09.20
Повідомлень: 7

2020-07-22 09:39  
taksist
агов, дебіли - слимак а не слизняк.

Спершу перевіряйте,потім грубіть
Слимаки[2][3] (також слизняки, слизні або слизуни) — молюски класу Черевоногих (Gastropoda) без черепашок, або з дуже маленькими внутрішніми черепашками, на відміну від равликів, які мають велику спіралевидну черепашку

І-р 
Свій


З нами з: 21.07.16
Востаннє: 26.09.20
Повідомлень: 104

2020-07-22 16:26  
taksist написано:
агов, дебіли - слимак а не слизняк.

А звідки у тебе, такого невихованого і неосвідченого, VIP статус. З таким грубим спілкуванням місце на ru-ресурсах.

lunatiq 
Частий відвідувач


З нами з: 01.02.16
Востаннє: 17.09.20
Повідомлень: 36

2020-07-22 22:20  
І-р
хороше питання

Lyolic 
VIP


З нами з: 04.08.09
Востаннє: 27.09.20
Повідомлень: 546

2020-07-22 22:50  
І-р
lunatiq
Цей статус залежить тільки від кількості повідомлень.
https://toloka.to/t35477-180

lastbreath 
Свій


З нами з: 02.12.15
Востаннє: 26.09.20
Повідомлень: 55

2020-07-24 01:25  
Фільм крутезний!
Ваш часовий пояс: GMT + 2 Години

Нова тема   Відповісти