Нікуди бігти / Standoff (2016) 720p Ukr/Eng | Sub Eng

Нові коментарі

Нова тема   Відповісти
Автор Повідомлення
killer2015 
Свій


З нами з: 30.01.15
Востаннє: 10.08.20
Повідомлень: 96

2020-07-21 21:41  
Нікуди бігти / Standoff (2016) 720p Ukr/Eng | Sub Eng

Нікуди бігти / Standoff (2016) 720p Ukr/Eng | Sub Eng


Жанр: драма, трилер
Країна: Канада



Кінокомпанія: Goldrush Entertainment, Maple Leaf Films, First Point Entertainment
Режисер: Адам Аллека
Актори: Томас Джейн, Лоуренс Фішберн, Елла Беллентайн, Джоанна Дуглас та інші

Сюжет:
Ветеран війни Картер Ґрін живе один в сільському будинку, де він сумує через смерть свого маленького сина. Дівчинка - сирота, яка пережила занадто багато втрат для свого юного віку, оплакує своїх батьків в річницю їх смерті і стає свідком того, як професійний найманий вбивця штурмує кладовище і вбиває всіх його відвідувачів. З жахом дівчинка тікає, за нею йде вбивця. Зрештою їй далі нікуди бігти і вона знаходить притулок у фермерському будинку Картера, де Картер клянеться захистити її і помститися за вбивство її сім'ї.



Тривалість: 01:26:12
Якість: 720p
Відео:
кодек:
розмір кадру: 1280x536
бітрейт: 5 743 кб/с

Аудіо # 1:
мова: українська
переклад: багатоголосий закадровий
кодек: 5.1
бітрейт: 384 кб/с

Аудіо # 2:
мова: англійська
переклад: оригінал
кодек: 5.1
бітрейт: 1 509 кб/с

Субтитри:
мова: англійська
тип: програмні (м'які)
формат: UTF-8
МедіаІнфо
General
Unique ID : 243161586825911378715388539298984736132 (0xB6EF37D7F9B7994359B099F664CFB584)
Complete name : G:\Фільми\Standoff .2016.720p.BluRay. Ukr. Eng - Sub Eng.
Format :
Format version : Version 4
File size : 4.60 GiB
Duration : 1 h 26 min
Overall bit rate : 7 637 kb/s
Movie name : .ELEKTRI4KA.UNIONGANG.
Encoded date : UTC 2020-07-21 18:35:06
Writing application : v47.0.0 ('Black Flag') 64-bit
Writing library : libebml v1.3.10 + v1.5.2

Video
ID : 1
Format : AVC
Format/Info : Advanced Video Codec
Format profile : [email protected]
Format settings : CABAC / 5 Ref Frames
Format settings, CABAC : Yes
Format settings, Reference frames : 5 frames
Codec ID : V_MPEG4/ISO/AVC
Duration : 1 h 26 min
Bit rate : 5 743 kb/s
Width : 1 280 pixels
Height : 536 pixels
Display aspect ratio : 2.40:1
Frame rate mode : Constant
Frame rate : 23.976 (24000/1001) FPS
Color space : YUV
Chroma subsampling : 4:2:0
Bit depth : 8 bits
Scan type : Progressive
Bits/(Pixel*Frame) : 0.349
Stream size : 3.46 GiB (75%)
Writing library : core 148 r2665 a01e339
Encoding settings : cabac=1 / ref=5 / deblock=1:-1:-1 / analyse=0x3:0x133 / me=umh / subme=8 / psy=1 / psy_rd=1.00:0.15 / mixed_ref=1 / me_range=16 / chroma_me=1 / trellis=1 / 8x8dct=1 / cqm=0 / deadzone=21,11 / fast_pskip=0 / chroma_qp_offset=-4 / threads=17 / lookahead_threads=2 / sliced_threads=0 / nr=0 / decimate=1 / interlaced=0 / bluray_compat=0 / constrained_intra=0 / bframes=3 / b_pyramid=2 / b_adapt=2 / b_bias=0 / direct=3 / weightb=1 / open_gop=0 / weightp=2 / keyint=240 / keyint_min=23 / scenecut=40 / intra_refresh=0 / rc_lookahead=50 / rc=2pass / mbtree=1 / bitrate=5743 / ratetol=1.0 / qcomp=0.60 / qpmin=10 / qpmax=69 / qpstep=4 / cplxblur=20.0 / qblur=0.5 / ip_ratio=1.40 / aq=1:1.00
Language : English
Default : Yes
Forced : No

Audio #1
ID : 2
Format : AC-3
Format/Info : Audio Coding 3
Commercial name : Dolby Digital
Codec ID : A_AC3
Duration : 1 h 26 min
Bit rate mode : Constant
Bit rate : 384 kb/s
Channel(s) : 6 channels
Channel layout : L R C LFE Ls Rs
Sampling rate : 48.0 kHz
Frame rate : 31.250 FPS (1536 SPF)
Compression mode : Lossy
Stream size : 236 MiB (5%)
Title : iTunes
Language : Ukrainian
Service kind : Complete Main
Default : Yes
Forced : Yes

Audio #2
ID : 3
Format :
Format/Info : Digital Theater Systems
Codec ID : A_DTS
Duration : 1 h 26 min
Bit rate mode : Constant
Bit rate : 1 509 kb/s
Channel(s) : 6 channels
Channel layout : C L R Ls Rs LFE
Sampling rate : 48.0 kHz
Frame rate : 93.750 FPS (512 SPF)
Bit depth : 24 bits
Compression mode : Lossy
Stream size : 930 MiB (20%)
Language : English
Default : No
Forced : No

Text
ID : 4
Format : UTF-8
Codec ID : S_TEXT/UTF8
Codec ID/Info : UTF-8 Plain Text
Duration : 1 h 24 min
Bit rate : 50 b/s
Count of elements : 1072
Stream size : 31.2 KiB (0%)
Title : English
Language : English
Default : Yes
Forced : No
Скріншоти



Джерело:


 Трекер:    Зареєстрований   

Завантажити / скачати фільм українською



відео для новачків



 Зареєстрований:   2020-07-21 21:41
 Розмір:   4.6 GB 
 Оцінка фільму:   8.9/10 (Голосів: 9)
   
Інші релізи
   Нікуди бігти / Standoff (2016) AVC Ukr/Eng | Sub Eng 11FrYkT  8 / 0   1.59 GB   2020-07-26 18:21 
   Нікуди бігти / Standoff (2016) drop_plz  4 / 0   1.46 GB   2020-07-25 17:58 
killer2015 
Свій


З нами з: 30.01.15
Востаннє: 10.08.20
Повідомлень: 96

2020-07-21 21:52  
Всім ПРИЄМНОГО ПЕРЕГЛЯДУ!

Ваш часовий пояс: GMT + 2 Години

Нова тема   Відповісти