Незнайомка (Сезон 1) / The Stranger (Season 1) (2020) UHD 2160p 4K Ukr/Eng | Sub Eng

Нові коментарі

Нова тема   Відповісти
Автор Повідомлення
RoMeL 
Відео Гуртом - підтримка та поширення
Відео Гуртом - підтримка та поширення


З нами з: 09.07.08
Востаннє: 08.08.20
Повідомлень: 158

2020-07-21 20:42  
Незнайомка (Сезон 1) / The Stranger (Season 1) (2020) UHD 2160p 4K Ukr/Eng | Sub Eng



Жанр: драма, кримінал, трилер
Країна: Велика Британія



Кінокомпанія: Red Production Company, Netflix
Режисер: Деніел О'Хара
Актори: Ханна Джон-Кеймен, Річард Армітедж, Шон Дулі, Шива Фіннеран, Джейк Дадмен, Міша Хендлі, Ентоні Хед, Пол Кей та інші.

Сюжет:
Адам Прайс - щасливий чоловік і батько, чиє життя летить під укіс, коли незнайомка розкриває йому секрет про його дружину Корінн. Шокуюче відкриття перетворює життя Адама в смертельно небезпечну інтригу, де будь-яка необережність може привести до загибелі.


Перекладено та озвучено ТО "Цікава Ідея" за підтримки fishMD


Тривалість: 1 серія: ~ 45 хв. (цілком серій: 8)
Перелік серій
01. Episode #1.1
02. Episode #1.2
03. Episode #1.3
04. Episode #1.4
05. Episode #1.5
06. Episode #1.6
07. Episode #1.7
08. Episode #1.8
Якість: 4K 2160p
Відео:
кодек:
розмір кадру: 3840 х 1920
бітрейт: ~33,7 Мбіт/сек (залежить від серії)

Аудіо # 1:
мова: українська
переклад: професійний багатоголосий закадровий | "Цікава Ідея"
кодек: 5.1
бітрейт: 448 кб/с
Ролі озвучили: Семен Птаха, Юлія Малахова, Андрій Корзаченко, Ганна Квочкіна, Матвій Ніколаєв та Олексій Сафін

Аудіо # 2:
мова: англійська
переклад: оригінал
кодек: E- 5.1
бітрейт: 640 кб/с

Субтитри # 1-2:
мова: англійська ( Full,SDH)
тип: програмні (м'які)
формат: *.srt
Info

Код:
General
Unique ID                                : 112193609936714072627212126034375416199 (0x5467B40B1D72995ED92B9A6A3F7B1987)
Complete name                            : /Volumes/Download/Shows/The.Stranger.S01.2020..2160p.[Ukr.Eng]/The.Stranger.S01E01.2020..2160p.[Ukr.Eng].
Format                                   :
Format version                           : Version 4
File size                                : 12.6 GiB
Duration                                 : 51mn 44s
Overall bit rate                         : 34.8 Mbps
Movie name                               : The.Stranger.S01E01.2020..2160p.[Ukr.Eng]
Encoded date                             : UTC 2020-07-19 09:53:29
Writing application                      : v47.0.0 ('Black Flag') 64-bit
Writing library                          : libebml v1.3.10 + v1.5.2
Cover                                    : Yes
Attachments                              : cover.jpg

Video
ID                                       : 1
Format                                   : AVC
Format/Info                              : Advanced Video Codec
Format profile                           : [email protected]
Format settings                          : CABAC / 6 Ref Frames
Format settings, CABAC                   : Yes
Format settings, ReFrames                : 6 frames
Codec ID                                 : V_MPEG4/ISO/AVC
Duration                                 : 51mn 44s
Bit rate                                 : 33.7 Mbps
Width                                    : 3 840 pixels
Height                                   : 1 920 pixels
Display aspect ratio                     : 2.000
Frame rate mode                          : Constant
Frame rate                               : 25.000 fps
Color space                              : YUV
Chroma subsampling                       : 4:2:0
Bit depth                                : 8 bits
Scan type                                : Progressive
Bits/(Pixel*Frame)                       : 0.183
Stream size                              : 12.2 GiB (97%)
Writing library                          : core 157 r2969 d4099dd
Encoding settings                        : cabac=1 / ref=6 / deblock=1:-3:-3 / analyse=0x3:0x133 / me=umh / subme=10 / psy=1 / psy_rd=1.00:0.15 / mixed_ref=1 / me_range=48 / chroma_me=1 / trellis=2 / 8x8dct=1 / cqm=0 / deadzone=21,11 / fast_pskip=0 / chroma_qp_offset=-3 / threads=12 / lookahead_threads=2 / sliced_threads=0 / nr=0 / decimate=0 / interlaced=0 / bluray_compat=0 / constrained_intra=0 / bframes=8 / b_pyramid=2 / b_adapt=2 / b_bias=0 / direct=3 / weightb=1 / open_gop=0 / weightp=2 / keyint=250 / keyint_min=25 / scenecut=40 / intra_refresh=0 / rc=crf / mbtree=0 / crf=19.0 / qcomp=0.60 / qpmin=0 / qpmax=69 / qpstep=4 / ip_ratio=1.30 / pb_ratio=1.20 / aq=3:0.80
Language                                 : English
Default                                  : Yes
Forced                                   : No

Audio #1
ID                                       : 2
Format                                   : AC-3
Format/Info                              : Audio Coding 3
Commercial name                          : Dolby Digital
Codec ID                                 : A_AC3
Duration                                 : 51mn 44s
Bit rate mode                            : Constant
Bit rate                                 : 448 Kbps
Channel(s)                               : 6 channels
Channel layout                           : L R C LFE Ls Rs
Sampling rate                            : 48.0 KHz
Frame rate                               : 31.250 fps (1536 SPF)
Compression mode                         : Lossy
Stream size                              : 166 MiB (1%)
Title                                    : Цікава Ідея
Language                                 : Ukrainian
Service kind                             : Complete Main
Default                                  : Yes
Forced                                   : No

Audio #2
ID                                       : 3
Format                                   : E-AC-3
Format/Info                              : Enhanced AC-3
Commercial name                          : Dolby Digital Plus
Codec ID                                 : A_EAC3
Duration                                 : 51mn 44s
Bit rate mode                            : Constant
Bit rate                                 : 640 Kbps
Channel(s)                               : 6 channels
Channel layout                           : L R C LFE Ls Rs
Sampling rate                            : 48.0 KHz
Frame rate                               : 31.250 fps (1536 SPF)
Compression mode                         : Lossy
Stream size                              : 237 MiB (2%)
Title                                    : English
Language                                 : English
Service kind                             : Complete Main
Default                                  : No
Forced                                   : No

Text #1
ID                                       : 4
Format                                   : UTF-8
Codec ID                                 : S_TEXT/UTF8
Codec ID/Info                            : UTF-8 Plain Text
Duration                                 : 48mn 14s
Bit rate                                 : 62 bps
Count of elements                        : 727
Stream size                              : 22.0 KiB (0%)
Language                                 : English
Default                                  : No
Forced                                   : No

Text #2
ID                                       : 5
Format                                   : UTF-8
Codec ID                                 : S_TEXT/UTF8
Codec ID/Info                            : UTF-8 Plain Text
Duration                                 : 48mn 32s
Bit rate                                 : 66 bps
Count of elements                        : 778
Stream size                              : 23.6 KiB (0%)
Title                                    : SDH
Language                                 : English
Default                                  : No
Forced                                   : No
Скріншоти






Джерело: "Цікава Ідея" & &


Авторський реліз (завантажувати можна без реєстрації)
 Трекер:    Зареєстрований   

Завантажити / скачати серіал українською



відео для новачків



 Зареєстрований:   2020-07-21 20:42
 Розмір:   86.42 GB 
 Оцінка серіалу:   10/10 (Голосів: 3)
   
Ваш часовий пояс: GMT + 2 Години

Нова тема   Відповісти