Філадельфійський експеримент / The Philadelphia Experiment (1984) AVC 2xUkr/Eng | Sub Eng

Нові коментарі

Нова тема   Відповісти
Автор Повідомлення
staf777 
Відео Гуртом - підтримка та поширення
Відео Гуртом - підтримка та поширення


З нами з: 16.11.16
Востаннє: 07.08.20
Повідомлень: 3930

2020-07-21 12:30  
Філадельфійський експеримент / The Philadelphia Experiment (1984) AVC 2xUkr/Eng | Sub Eng

Філадельфійський експеримент / The Philadelphia Experiment (1984) AVC 2xUkr/Eng | Sub Eng
Українізований постер від abodnya:



Жанр: пригодницький, детектив, фантастика, трилер
Країна: США



Кінокомпанія: Cinema Group Ventures, New Pictures
Режисер: Стюарт Реффіл
Актори: Майкл Паре, Ненсі Аллен, Боббі Ді Чікко, Ерік Крістмас, Кін Голідей, Луїз Летем, Джо Дорсі, Майкл Каррі, Стівен Тоболовські, Гері Брокетт

Сюжет:
Друга світова війна. Випробовується обладнання, яке робить американські військові кораблі невидимими для радарів супротивника. Під час цих дослідів зникає один бойовий корабель, а два моряка виявляються закинутими у 1984 рік....


Тривалість: 01:41:11
Якість: AVC
Відео:
кодек:
розмір кадру: 1024x576
бітрейт: 3214 кб/с

Аудіо # 1:
мова: українська
переклад: двоголосий закадровий
кодек: 2.0
бітрейт: 192 кб/с

Аудіо # 2:
мова: українська
переклад: двоголосий закадровий
кодек: 2.0
бітрейт: 192 кб/с

Аудіо # 3:
мова: англійська
переклад: оригінал
кодек: 5.1
бітрейт: 448 кб/с

Субтитри:
мова: англійська
тип: програмні (м'які)
формат: *.srt
Info
General
Unique ID : 68267692443938350792158494582028481221 (0x335BE11A89EE9FB9327FFF482AC1B2C5)
Complete name : Z:\Фільми AVC\Фантастика\The Philadelphia Experiment (1984) AVC [2xUKR_ENG] [Hurtom].
Format :
Format version : Version 4
File size : 2.86 GiB
Duration : 1 h 41 min
Overall bit rate : 4 047 kb/s
Movie name : Філадельфійський експеримент / The Philadelphia Experiment (1984) AVC [2xUKR_ENG] [Hurtom]
Encoded date : UTC 2020-07-21 18:17:22
Writing application : v46.0.0 ('No Deeper Escape') 64-bit
Writing library : libebml v1.3.10 + v1.5.2
Cover : Yes
Attachments : cover.jpg

Video
ID : 1
Format : AVC
Format/Info : Advanced Video Codec
Format profile : [email protected]
Format settings : CABAC / 14 Ref Frames
Format settings, CABAC : Yes
Format settings, Reference : 14 frames
Codec ID : V_MPEG4/ISO/AVC
Duration : 1 h 41 min
Bit rate : 3 214 kb/s
Width : 1 024 pixels
Height : 576 pixels
Display aspect ratio : 16:9
Frame rate mode : Constant
Frame rate : 23.976 (24000/1001) FPS
Color space : YUV
Chroma subsampling : 4:2:0
Bit depth : 8 bits
Scan type : Progressive
Bits/(Pixel*Frame) : 0.227
Stream size : 2.27 GiB (79%)
Title : Filadel'fijskij.Eksperiment.1984...
Writing library : core 142 r2431 ac76440
Encoding settings : cabac=1 / ref=14 / deblock=1:-3:-2 / analyse=0x3:0x133 / me=tesa / subme=11 / psy=1 / psy_rd=1.00:0.15 / mixed_ref=1 / me_range=24 / chroma_me=1 / trellis=2 / 8x8dct=1 / cqm=0 / deadzone=21,11 / fast_pskip=0 / chroma_qp_offset=-3 / threads=12 / lookahead_threads=3 / sliced_threads=0 / nr=0 / decimate=1 / interlaced=0 / bluray_compat=0 / constrained_intra=0 / bframes=16 / b_pyramid=2 / b_adapt=2 / b_bias=0 / direct=3 / weightb=1 / open_gop=0 / weightp=2 / keyint=240 / keyint_min=23 / scenecut=40 / intra_refresh=0 / rc_lookahead=60 / rc=crf / mbtree=1 / crf=18.5 / qcomp=0.60 / qpmin=0 / qpmax=69 / qpstep=4 / vbv_maxrate=62500 / vbv_bufsize=78125 / crf_max=0.0 / nal_hrd=none / filler=0 / ip_ratio=1.40 / aq=1:1.00 / zones=141607,145574,q=30
Language : English
Default : Yes
Forced : No
Color range : Limited
Color primaries : BT.709
Transfer characteristics : BT.709
Matrix coefficients : BT.709

Audio #1
ID : 2
Format : AC-3
Format/Info : Audio Coding 3
Commercial name : Dolby Digital
Codec ID : A_AC3
Duration : 1 h 41 min
Bit rate mode : Constant
Bit rate : 192 kb/s
Channel(s) : 2 channels
Channel layout : L R
Sampling rate : 48.0 kHz
Frame rate : 31.250 FPS (1536 SPF)
Compression mode : Lossy
Stream size : 139 MiB (5%)
Title : DVO (НТН)
Language : Ukrainian
Service kind : Complete Main
Default : Yes
Forced : Yes

Audio #2
ID : 3
Format : AC-3
Format/Info : Audio Coding 3
Commercial name : Dolby Digital
Codec ID : A_AC3
Duration : 1 h 41 min
Bit rate mode : Constant
Bit rate : 192 kb/s
Channel(s) : 2 channels
Channel layout : L R
Sampling rate : 48.0 kHz
Frame rate : 31.250 FPS (1536 SPF)
Compression mode : Lossy
Stream size : 139 MiB (5%)
Title : DVO (1+1)
Language : Ukrainian
Service kind : Complete Main
Default : No
Forced : No

Audio #3
ID : 4
Format : AC-3
Format/Info : Audio Coding 3
Commercial name : Dolby Digital
Codec ID : A_AC3
Duration : 1 h 41 min
Bit rate mode : Constant
Bit rate : 448 kb/s
Channel(s) : 6 channels
Channel layout : L R C LFE Ls Rs
Sampling rate : 48.0 kHz
Frame rate : 31.250 FPS (1536 SPF)
Compression mode : Lossy
Stream size : 324 MiB (11%)
Title : Original
Language : English
Service kind : Complete Main
Default : No
Forced : No

Text
ID : 5
Format : UTF-8
Codec ID : S_TEXT/UTF8
Codec ID/Info : UTF-8 Plain Text
Duration : 1 h 36 min
Bit rate : 51 b/s
Count of elements : 855
Stream size : 36.1 KiB (0%)
Title : Full
Language : English
Default : No
Forced : No

Menu
00:00:00.375 : en:Chapter 01
00:10:00.599 : en:Chapter 02
00:20:01.200 : en:Chapter 03
00:30:01.800 : en:Chapter 04
00:40:02.400 : en:Chapter 05
00:50:03.000 : en:Chapter 06
01:00:03.600 : en:Chapter 07
01:10:04.200 : en:Chapter 08
01:20:04.800 : en:Chapter 09
01:30:05.400 : en:Chapter 10
01:40:06.000 : en:Chapter 11
Скріншоти

Джерело: &
Особиста оцінка: 0 - не дивився


Срібний реліз (на рейтинг впливає 50% завантаженого)
 Трекер:    Зареєстрований   

Завантажити / скачати фільм українською



відео для новачків



 Зареєстрований:   2020-07-21 21:34
 Розмір:   2.86 GB 
 Оцінка фільму:   9.6/10 (Голосів: 11)
   
bot 
робот


З нами з: 30.09.07
Востаннє: 26.05.05
Повідомлень: 25180

2020-07-21 21:34  
Тему перенесено з Анонси релізів до форуму Фільми


staf777

killer2015 
Свій


З нами з: 30.01.15
Востаннє: 07.08.20
Повідомлень: 96

2020-07-21 22:29  
ДЯКУЮ!
Ваш часовий пояс: GMT + 2 Години

Нова тема   Відповісти