Життя на повторі / Un homme pressé (2018) 1080p Ukr/Fre

Нові коментарі

Нова тема   Відповісти
Автор Повідомлення
staf777 
Відео Гуртом - підтримка та поширення
Відео Гуртом - підтримка та поширення


З нами з: 16.11.16
Востаннє: 24.09.20
Повідомлень: 4031

2020-07-21 11:08  
Життя на повторі / Un homme pressé (2018) 1080p Ukr/Fre

Життя на повторі / Un homme pressé (2018) 1080p Ukr/Fre


Жанр: комедія, драма
Країна: Франція



Кінокомпанія: Albertine Productions, Gaumont, France 2 Cinéma
Режисер: Ерве Мімран
Актори: Фабріс Лукіні, Лейла Бехті, Ребекка Мардер, Ігор Готсман, Клемансо Массар, Ів Жак, Міша Лекот, Фредерік Тірмон, Евелін Діді, Ерік Ваплер

Сюжет:
Ален - бізнесмен і блискучий оратор. Він вічно в русі, і ніхто не може змусити його зупинитися і перепочити ... поки одного разу його не спиняє інсульт. Рухові функції відновилися швидко, чого не можна сказати про мову і пам'ять ... Реабілітацією Алена займається молодий логопед Жанна, і їм обом доведеться набратися сил і терпіння, а також як слід пізнати один одного, щоб перемогти наслідки хвороби і, нарешті, знайти оптимальний ритм для життя.


Тривалість: 01:40:01
Якість:
Відео:
кодек:
розмір кадру: 1920x804
бітрейт: 10.6 Mб/с

Аудіо # 1:
мова: українська
переклад: багатоголосий закадровий
кодек: 2.0
бітрейт: 192 кб/с

Аудіо # 2:
мова: французька
переклад: оригінал
кодек: 5.1
бітрейт: 640 кб/с

Джерело озвучення:
Info
General
Unique ID : 253398764325761818841129394760930729837 (0xBEA2D3A9B9FBF547B830E974DCD69F6D)
Complete name : Z:\Фільми в HD\Комедія\Un homme pressé (2018) 1080p [Ukr,Fre] [Hurtom].
Format :
Format version : Version 4
File size : 7.98 GiB
Duration : 1 h 40 min
Overall bit rate : 11.4 Mb/s
Movie name : Життя на повторі / Un homme pressé (2018) 1080p [Ukr,Fre] [Hurtom]
Encoded date : UTC 2020-07-21 12:24:13
Writing application : v46.0.0 ('No Deeper Escape') 64-bit
Writing library : libebml v1.3.10 + v1.5.2
Cover : Yes
Attachments : cover.jpg

Video
ID : 1
Format : AVC
Format/Info : Advanced Video Codec
Format profile : [email protected]
Format settings : CABAC / 5 Ref Frames
Format settings, CABAC : Yes
Format settings, Reference : 5 frames
Codec ID : V_MPEG4/ISO/AVC
Duration : 1 h 40 min
Bit rate : 10.6 Mb/s
Width : 1 920 pixels
Height : 804 pixels
Display aspect ratio : 2.40:1
Frame rate mode : Constant
Frame rate : 24.000 FPS
Color space : YUV
Chroma subsampling : 4:2:0
Bit depth : 8 bits
Scan type : Progressive
Bits/(Pixel*Frame) : 0.286
Stream size : 7.40 GiB (93%)
Title : Encoded by seleZen
Writing library : core 142 r2431+42 c69a006 tMod [[email protected] X86_64]
Encoding settings : cabac=1 / ref=5 / deblock=1:-2:-2 / analyse=0x3:0x133 / me=umh / subme=10 / psy=1 / fade_compensate=0.00 / psy_rd=1.01:0.01 / mixed_ref=1 / me_range=32 / chroma_me=1 / trellis=2 / 8x8dct=1 / cqm=0 / deadzone=21,11 / fast_pskip=0 / chroma_qp_offset=-3 / threads=24 / lookahead_threads=4 / sliced_threads=0 / nr=0 / decimate=0 / interlaced=0 / bluray_compat=0 / constrained_intra=0 / fgo=0 / bframes=8 / b_pyramid=2 / b_adapt=2 / b_bias=0 / direct=3 / weightb=1 / open_gop=0 / weightp=2 / keyint=240 / keyint_min=24 / scenecut=40 / intra_refresh=0 / rc_lookahead=50 / rc=2pass / mbtree=0 / bitrate=10598 / ratetol=1.0 / qcomp=0.60 / qpmin=0:0:0 / qpmax=51:51:51 / qpstep=4 / cplxblur=20.0 / qblur=0.5 / vbv_maxrate=50000 / vbv_bufsize=62500 / nal_hrd=none / filler=0 / ip_ratio=1.40 / pb_ratio=1.30 / aq=3:0.80 / aq-sensitivity=10.00 / aq-factor=1.00:1.00:1.00 / aq2=0 / aq3=0
Language : English
Default : Yes
Forced : No

Audio #1
ID : 2
Format : AC-3
Format/Info : Audio Coding 3
Commercial name : Dolby Digital
Codec ID : A_AC3
Duration : 1 h 40 min
Bit rate mode : Constant
Bit rate : 192 kb/s
Channel(s) : 2 channels
Channel layout : L R
Sampling rate : 48.0 kHz
Frame rate : 31.250 FPS (1536 SPF)
Compression mode : Lossy
Stream size : 137 MiB (2%)
Title : Інтер
Language : Ukrainian
Service kind : Complete Main
Default : Yes
Forced : Yes

Audio #2
ID : 3
Format : AC-3
Format/Info : Audio Coding 3
Commercial name : Dolby Digital
Codec ID : A_AC3
Duration : 1 h 40 min
Bit rate mode : Constant
Bit rate : 640 kb/s
Channel(s) : 6 channels
Channel layout : L R C LFE Ls Rs
Sampling rate : 48.0 kHz
Frame rate : 31.250 FPS (1536 SPF)
Compression mode : Lossy
Stream size : 458 MiB (6%)
Title : Original
Language : French
Service kind : Complete Main
Default : No
Forced : No

Menu
00:00:00.000 : en:00:00:00.000
00:07:03.792 : en:00:07:03.792
00:16:15.875 : en:00:16:15.875
00:23:28.500 : en:00:23:28.500
00:30:39.667 : en:00:30:39.667
00:38:54.583 : en:00:38:54.583
00:47:30.792 : en:00:47:30.792
00:55:40.417 : en:00:55:40.417
01:04:38.667 : en:01:04:38.667
01:14:06.917 : en:01:14:06.917
01:26:59.792 : en:01:26:59.792
01:36:26.583 : en:01:36:26.583




Запис з ТБ Arsenfpu Синхронізація Arsenfpu
Джерело: &
ЗАЛИШАЙТЕСЬ ЯКОМОГА ДОВШЕ НА РОЗДАЧІ!

СКАЧАВ САМ - ДАЙ СКАЧАТИ ІНШИМ



 Трекер:    Зареєстрований   

Завантажити / скачати фільм українською



відео для новачків



 Зареєстрований:   2020-07-21 15:38
 Розмір:   7.98 GB 
 Оцінка фільму:   8.7/10 (Голосів: 7)
   
Інші релізи
   Життя на повторі / Un homme pressé (2018) 720p Ukr/Fre staf777  3 / 0   4.42 GB   2020-07-20 21:31 
   Життя на повторі / Un homme pressé (2018) AVC Ukr/Fre Arsenfpu  10 / 0   2.01 GB   2020-07-20 01:13 
bot 
робот


З нами з: 30.09.07
Востаннє: 26.05.05
Повідомлень: 25582

2020-07-21 15:38  
Тему перенесено з Анонси релізів до форуму Фільми в HD


staf777

VitNi 
Поважний учасник


З нами з: 05.05.12
Востаннє: 24.09.20
Повідомлень: 181

2020-07-21 19:29  
фігня... ледь додивився до того, як воно коверкає слова і це повинно бути смішно? Можливо в дитсадку та розумово відсталим така фігня і смішно...
Ваш часовий пояс: GMT + 2 Години

Нова тема   Відповісти