Вшкварені / Scorched (2003) AVC

Нові коментарі

Нова тема   Відповісти
Автор Повідомлення
Arsenfpu 
Відео Гуртом - фільмокрай
Відео Гуртом - фільмокрай


З нами з: 30.04.09
Востаннє: 05.08.20
Повідомлень: 7115

2020-07-21 08:00  
Вшкварені / Scorched (2003) AVC

Вшкварені / Scorched (2003) AVC


Жанр: комедія, кримінальний
Країна: США



Кінокомпанія: Code Entertainment, Eclipse Catering
Режисер: Гейвін Грейзер
Актори: Алісія Сільверстоун, Рейчел Лі Кук, Вуді Харрельсон, Джон Кліз, Паоло Костанзо, Девід Крамхолц, Джошуа Леонард, Уейн Морс, Джеффрі Тембор, Макс Уайн, Маркус Томас

Сюжет:
Працюючи в Пустельному ощадному банку в містечку посеред пустелі, особливо не розбагатієш - так думають три його працівника, невтомно прокручуючи в голові варіанти збагачення. Нарешті, план пограбування банку дозрів! Шкода тільки, що у кожного він свій і один з одним ці "генії" не спілкуються. Горе-нальотчики впевнені, що прорахували всі деталі, але звідки їм знати, що не тільки вони зазіхнули на незліченні багатства посеред пустелі!


Тривалість: 01:30:07
Якість:
Відео:
кодек:
розмір кадру: 1 024 х 544
бітрейт: 2 503 кб/с

Аудіо:
мова: українська
переклад: багатоголосий закадровий
кодек: 2.0
бітрейт: 192 кб/с
Скріншоти














Про файл
General
Unique ID : 336154255722144517254657419155500784090 (0xFCE4F46767E69C3472C84CE26E8159DA)
Complete name : C:\Scorched (2003) AVC [Hurtom].
Format :
Format version : Version 4 / Version 2
File size : 1.70 GiB
Duration : 1 h 30 min
Overall bit rate : 2 697 kb/s
Movie name : Вшкварені / Scorched (2003)
Encoded date : UTC 2020-07-21 04:40:20
Writing application : v21.0.0 ('Tardigrades Will Inherit The Earth') 32-bit
Writing library : libebml v1.3.5 + v1.4.8
Cover : Yes
Attachments : cover.jpg

Video
ID : 1
Format : AVC
Format/Info : Advanced Video Codec
Format profile : [email protected]
Format settings, CABAC : Yes
Format settings, ReFrames : 4 frames
Codec ID : V_MPEG4/ISO/AVC
Duration : 1 h 30 min
Bit rate : 2 503 kb/s
Width : 1 024 pixels
Height : 544 pixels
Display aspect ratio : 1.882
Frame rate mode : Constant
Frame rate : 25.000 FPS
Color space : YUV
Chroma subsampling : 4:2:0
Bit depth : 8 bits
Scan type : Progressive
Bits/(Pixel*Frame) : 0.180
Stream size : 1.58 GiB (93%)
Default : Yes
Forced : No

Audio
ID : 2
Format : AC-3
Format/Info : Audio Coding 3
Mode extension : CM (complete main)
Format settings, Endianness : Big
Codec ID : A_AC3
Duration : 1 h 30 min
Bit rate mode : Constant
Bit rate : 192 kb/s
Channel(s) : 2 channels
Channel positions : Front: L R
Sampling rate : 48.0 kHz
Frame rate : 31.250 FPS (1536 spf)
Compression mode : Lossy
Stream size : 124 MiB (7%)
Title : amc
Language : Ukrainian
Default : Yes
Forced : No
Джерело:
Особиста оцінка: не дивився


Срібний реліз (на рейтинг впливає 50% завантаженого)
 Трекер:    Зареєстрований   

Завантажити / скачати фільм українською



відео для новачків



 Зареєстрований:   2020-07-21 08:00
 Розмір:   1.7 GB 
 Оцінка фільму:   10/10 (Голосів: 6)
   
Інші релізи
   Вшкварені (Лихачі) / Scorched (2003) drop_plz  3 / 0   1.37 GB   2019-09-26 07:15 
Ваш часовий пояс: GMT + 2 Години

Нова тема   Відповісти