Еліта (Сезон 1-2) / Elite (Season 1-2) (2018-2019) AVC Ukr/Spa

Нові коментарі

Нова тема   Відповісти
Автор Повідомлення
Цікава ідея 
VIP


З нами з: 26.12.11
Востаннє: 07.08.20
Повідомлень: 554

2020-07-20 01:04  
AVC | 1080p

Еліта (Сезон 1-2) / Elite (Season 1-2) (2018-2019)


Еліта (Сезон 1-2) / Elite (Season 1-2) (2018-2019) AVC Ukr/Spa


Жанр: драма, кримінал, трилер
Країна: Іспанія



Кінокомпанія / телеканал: Red Production Company, Netflix
Режисери: Рамон Саласар, Дані де ла Орден, Сільвія Кер
Актори: Ітза Еськамільо, Мігель Бернардо, Альваро Ріко, Арон Пайпер, Мина Ель Хаммані, Естер Експозіто, Омар Аюсо, Данна Паола, Айноа Сантамарія, Хайме Лоренте, Елісабет Хелаберт, Ірен Аркос, Фара Хамед та інші.

Сюжет:
Троє підлітків з бідних сімей потрапляють в «Лас Енчінас» - найпрестижнішу школу в країні. Забезпеченим діткам не подобаються новачки, і починається безжальна битва за владу. У хід йдуть будь-які засоби і методи, навіть вбивство.


Перекладено та озвучено ТО "Цікава Ідея" за підтримки fishMD



Еліта (Сезон 1) / Elite (Season 1) (2018) AVC Ukr/Spa

Тривалість: 1 серія: ~ 50 хв. (цілком серій: 8)
Перелік серій:

01. Bienvenidos
02. Deseo
03. Sábado noche
04. El amor es una droga
05. Todos mienten
06. Todo va a salir bien
07. Todo estalla
08. Assilah
Якість: AVC
Відео:
кодек:
розмір кадру: 720 x 368
бітрейт: ~ 1100 кб/с

Аудіо # 1:
мова: українська | "Цікава Ідея"
переклад: професійний багатоголосий закадровий
кодек: 5.1
бітрейт: 448 кб/с

Аудіо # 2:
мова: іспанська
переклад: оригінал
кодек: E- 5.1
бітрейт: 640 кб/с
Info
Код:
Format                      :
Format version              : Version 4
File size                   : 864 MiB
Duration                    : 55 min 56 s
Overall bit rate            : 2 160 kb/s
Movie name                  : Еліта / Elite - S01E01 (2018) AVC [Ukr.Spa] [Цікава Ідея]
Encoded date                : UTC 2020-07-11 11:03:13
Writing application         : v6.8.0 ('Theme for Great Cities') 32bit built on Mar  2 2014 21:27:07
Writing library             : libebml v1.3.0 + v1.4.1
Cover                       : Yes
Attachments                 : cover.jpg

Video
ID                          : 1
Format                      : AVC
Format/Info                 : Advanced Video Codec
Format profile              : [email protected]
Format settings             : CABAC / 5 Ref Frames
Format settings, CABAC      : Yes
Format settings, Reference  : 5 frames
Codec ID                    : V_MPEG4/ISO/AVC
Duration                    : 55 min 56 s
Bit rate                    : 1 029 kb/s
Nominal bit rate            : 1 100 kb/s
Width                       : 720 pixels
Height                      : 368 pixels
Display aspect ratio        : 2.000
Frame rate mode             : Constant
Frame rate                  : 25.000 FPS
Color space                 : YUV
Chroma subsampling          : 4:2:0
Bit depth                   : 8 bits
Scan type                   : Progressive
Bits/(Pixel*Frame)          : 0.155
Stream size                 : 412 MiB (48%)
Writing library             : core 148 r2795M aaa9aa8
Encoding settings           : cabac=1 / ref=5 / deblock=1:-1:-1 / analyse=0x3:0x113 / me=umh / subme=9 / psy=1 / psy_rd=1.00:0.15 / mixed_ref=1 / me_range=16 / chroma_me=1 / trellis=2 / 8x8dct=1 / cqm=0 / deadzone=21,11 / fast_pskip=1 / chroma_qp_offset=-3 / threads=24 / lookahead_threads=2 / sliced_threads=0 / nr=0 / decimate=1 / interlaced=0 / bluray_compat=0 / constrained_intra=0 / bframes=3 / b_pyramid=2 / b_adapt=2 / b_bias=0 / direct=3 / weightb=1 / open_gop=0 / weightp=2 / keyint=250 / keyint_min=25 / scenecut=40 / intra_refresh=0 / rc_lookahead=50 / rc=abr / mbtree=1 / bitrate=1100 / ratetol=1.0 / qcomp=0.60 / qpmin=0 / qpmax=69 / qpstep=4 / ip_ratio=1.40 / aq=1:1.00
Default                     : Yes
Forced                      : No

Audio #1
ID                          : 2
Format                      : AC-3
Format/Info                 : Audio Coding 3
Commercial name             : Dolby Digital
Codec ID                    : A_AC3
Duration                    : 55 min 56 s
Bit rate mode               : Constant
Bit rate                    : 448 kb/s
Channel(s)                  : 6 channels
Channel layout              : L R C LFE Ls Rs
Sampling rate               : 48.0 kHz
Frame rate                  : 31.250 FPS (1536 SPF)
Bit depth                   : 16 bits
Compression mode            : Lossy
Stream size                 : 179 MiB (21%)
Title                       : Цікава Ідея
Language                    : Ukrainian
Service kind                : Complete Main
Default                     : Yes
Forced                      : No

Audio #2
ID                          : 3
Format                      : E-AC-3
Format/Info                 : Enhanced AC-3
Commercial name             : Dolby Digital Plus
Codec ID                    : A_EAC3
Duration                    : 55 min 56 s
Bit rate mode               : Constant
Bit rate                    : 640 kb/s
Channel(s)                  : 6 channels
Channel layout              : L R C LFE Ls Rs
Sampling rate               : 48.0 kHz
Frame rate                  : 31.250 FPS (1536 SPF)
Compression mode            : Lossy
Stream size                 : 256 MiB (30%)
Title                       : Castilian
Language                    : Spanish
Service kind                : Complete Main
Default                     : No
Forced                      : No
Скріншоти

Еліта (Сезон 2) / Elite (Season 2) (2019) AVC Ukr/Spa

Тривалість: 1 серія: ~ 50 хв. (цілком серій: 8)
Перелік серій:

01. 20 horas desaparecido
02. 34 horas desaparecido
03. 36 horas desaparecido
04. 59 horas desaparecido
05. 63 horas desaparecido
06. 66 horas desaparecido
07. 84 horas desaparecido
08. 0 horas desaparecido
Якість: AVC
Відео:
кодек:
розмір кадру: 720 x 360
бітрейт: ~ 1100 кб/с

Аудіо # 1:
мова: українська | "Цікава Ідея"
переклад: професійний багатоголосий закадровий
кодек: 5.1
бітрейт: 448 кб/с

Аудіо # 2:
мова: іспанська
переклад: оригінал
кодек: E- 5.1
бітрейт: 640 кб/с
Info
Код:
Format                      :
Format version              : Version 4
File size                   : 806 MiB
Duration                    : 51 min 58 s
Overall bit rate            : 2 168 kb/s
Movie name                  : Еліта / Elite - S02E01 (2019) AVC [Ukr.Spa] [Цікава Ідея]
Encoded date                : UTC 2020-08-05 17:09:11
Writing application         : v6.8.0 ('Theme for Great Cities') 32bit built on Mar  2 2014 21:27:07
Writing library             : libebml v1.3.0 + v1.4.1
Cover                       : Yes
Attachments                 : cover.jpg

Video
ID                          : 1
Format                      : AVC
Format/Info                 : Advanced Video Codec
Format profile              : [email protected]
Format settings             : CABAC / 5 Ref Frames
Format settings, CABAC      : Yes
Format settings, Reference  : 5 frames
Codec ID                    : V_MPEG4/ISO/AVC
Duration                    : 51 min 58 s
Bit rate                    : 1 037 kb/s
Nominal bit rate            : 1 100 kb/s
Width                       : 720 pixels
Height                      : 360 pixels
Display aspect ratio        : 2.000
Frame rate mode             : Constant
Frame rate                  : 25.000 FPS
Color space                 : YUV
Chroma subsampling          : 4:2:0
Bit depth                   : 8 bits
Scan type                   : Progressive
Bits/(Pixel*Frame)          : 0.160
Stream size                 : 385 MiB (48%)
Writing library             : core 148 r2795M aaa9aa8
Encoding settings           : cabac=1 / ref=5 / deblock=1:-1:-1 / analyse=0x3:0x113 / me=umh / subme=9 / psy=1 / psy_rd=1.00:0.15 / mixed_ref=1 / me_range=16 / chroma_me=1 / trellis=2 / 8x8dct=1 / cqm=0 / deadzone=21,11 / fast_pskip=1 / chroma_qp_offset=-3 / threads=24 / lookahead_threads=2 / sliced_threads=0 / nr=0 / decimate=1 / interlaced=0 / bluray_compat=0 / constrained_intra=0 / bframes=3 / b_pyramid=2 / b_adapt=2 / b_bias=0 / direct=3 / weightb=1 / open_gop=0 / weightp=2 / keyint=250 / keyint_min=25 / scenecut=40 / intra_refresh=0 / rc_lookahead=50 / rc=abr / mbtree=1 / bitrate=1100 / ratetol=1.0 / qcomp=0.60 / qpmin=0 / qpmax=69 / qpstep=4 / ip_ratio=1.40 / aq=1:1.00
Default                     : Yes
Forced                      : No

Audio #1
ID                          : 2
Format                      : AC-3
Format/Info                 : Audio Coding 3
Commercial name             : Dolby Digital
Codec ID                    : A_AC3
Duration                    : 51 min 58 s
Bit rate mode               : Constant
Bit rate                    : 448 kb/s
Channel(s)                  : 6 channels
Channel layout              : L R C LFE Ls Rs
Sampling rate               : 48.0 kHz
Frame rate                  : 31.250 FPS (1536 SPF)
Bit depth                   : 16 bits
Compression mode            : Lossy
Stream size                 : 167 MiB (21%)
Title                       : Цікава Ідея
Language                    : Ukrainian
Service kind                : Complete Main
Default                     : Yes
Forced                      : No

Audio #2
ID                          : 3
Format                      : E-AC-3
Format/Info                 : Enhanced AC-3
Commercial name             : Dolby Digital Plus
Codec ID                    : A_EAC3
Duration                    : 51 min 58 s
Bit rate mode               : Constant
Bit rate                    : 640 kb/s
Channel(s)                  : 6 channels
Channel layout              : L R C LFE Ls Rs
Sampling rate               : 48.0 kHz
Frame rate                  : 31.250 FPS (1536 SPF)
Compression mode            : Lossy
Stream size                 : 238 MiB (30%)
Title                       : Castilian
Language                    : Spanish
Service kind                : Complete Main
Default                     : No
Forced                      : No
Скріншоти



Перекладено та озвучено творчим об'єднанням:
Ролі озвучили: Семен Птаха, Ольга Мотрич, Олександр Чернов, Юлія Малахова, Андрій Корзаченко та Олексій Сафін.


Авторський реліз (завантажувати можна без реєстрації)
 Трекер:    Зареєстрований   

Завантажити / скачати серіал українською



відео для новачків



 Зареєстрований:   2020-08-07 15:28
 Розмір:   12.14 GB 
 Оцінка серіалу:   8.4/10 (Голосів: 12)
   
Ella1 
Свій


З нами з: 25.12.09
Востаннє: 01.08.20
Повідомлень: 92

2020-07-21 22:21  
Не сподобалось. Здається, це перший серіал Netflix , який мені не сподобався.
Багато сексу, багато наркотиків і... нудьги. Просто неймовірно нудний фільм.

_SiReN_ 
Новенький


З нами з: 12.04.20
Востаннє: 29.07.20
Повідомлень: 1

2020-07-29 10:49  
Дякую! Буде 2 сезон в вашому перекладі?
Цікава ідея 
VIP


З нами з: 26.12.11
Востаннє: 07.08.20
Повідомлень: 554

2020-08-03 15:29  
Прохання перезавантажити 1-й сезон!
[тепер Надя без акценту, як і в оригіналі]


Бажаємо всім приємного перегляду!

21jumpstreet 
VIP


З нами з: 03.07.12
Востаннє: 08.08.20
Повідомлень: 1126

2020-08-03 15:41  
А там що Елісон Паркер із Паперового будинку???
Цікава ідея 
VIP


З нами з: 26.12.11
Востаннє: 07.08.20
Повідомлень: 554

2020-08-03 15:43  
21jumpstreet написано:
А там що Елісон Паркер із Паперового будинку???

І не тільки вона)

Додано через 14 секунд:

_SiReN_ написано:
Буде 2 сезон в вашому перекладі?

Буде.

Цікава ідея 
VIP


З нами з: 26.12.11
Востаннє: 07.08.20
Повідомлень: 554

2020-08-05 23:13  
Переклали та озвучили 2-й сезон.


Бажаємо всім приємного перегляду.

pavlokoh 
Новенький


З нами з: 03.02.12
Востаннє: 07.08.20
Повідомлень: 4

2020-08-06 19:04  
У першій серії другого сезону на 1 хвилині 30 секунд є напис "3 meses antes" який озвучили як 3 місяці по тому, хоча насправді це перекладається як 3 місяці до цього.
Цікава ідея 
VIP


З нами з: 26.12.11
Востаннє: 07.08.20
Повідомлень: 554

2020-08-07 15:29  
pavlokoh написано:
У першій серії другого сезону на 1 хвилині 30 секунд є напис "3 meses antes" який озвучили як 3 місяці по тому, хоча насправді це перекладається як 3 місяці до цього.

Дякуємо за уважність! Вже виправили.

Додано через 14 секунд:

Прохання перезавантажити s02e01!
[виправлено помилку]


Бажаємо всім приємного перегляду.

Ваш часовий пояс: GMT + 2 Години

Нова тема   Відповісти