Еліта (Сезон 1-2) / Elite (Season 1-2) (2018-2019) 1080p Ukr/Spa

Нові коментарі

Нова тема   Відповісти
Автор Повідомлення
Цікава ідея 
VIP


З нами з: 26.12.11
Востаннє: 07.08.20
Повідомлень: 554

2020-07-20 00:52  
AVC | 1080p

Еліта (Сезон 1-2) / Elite (Season 1-2) (2018-2019) 1080p Ukr/Spa


Еліта (Сезон 1-2) / Elite (Season 1-2) (2018-2019) 1080p Ukr/Spa


Жанр: драма, кримінал, трилер
Країна: Іспанія



Кінокомпанія / телеканал: Red Production Company, Netflix
Режисери: Рамон Саласар, Дані де ла Орден, Сільвія Кер
Актори: Ітза Еськамільо, Мігель Бернардо, Альваро Ріко, Арон Пайпер, Мина Ель Хаммані, Естер Експозіто, Омар Аюсо, Данна Паола, Айноа Сантамарія, Хайме Лоренте, Елісабет Хелаберт, Ірен Аркос, Фара Хамед та інші.

Сюжет:
Троє підлітків з бідних сімей потрапляють в «Лас Енчінас» - найпрестижнішу школу в країні. Забезпеченим діткам не подобаються новачки, і починається безжальна битва за владу. У хід йдуть будь-які засоби і методи, навіть вбивство.


Перекладено та озвучено ТО "Цікава Ідея" за підтримки fishMD



Еліта (Сезон 1) / Elite (Season 1) (2018) 1080p Ukr/Spa

Тривалість: 1 серія: ~ 50 хв. (цілком серій: 8)
Перелік серій:

01. Bienvenidos
02. Deseo
03. Sábado noche
04. El amor es una droga
05. Todos mienten
06. Todo va a salir bien
07. Todo estalla
08. Assilah
Якість: 1080p
Відео:
кодек:
розмір кадру: 1920 x 1080
бітрейт: ~ 5000 кб/с

Аудіо # 1:
мова: українська | "Цікава Ідея"
переклад: професійний багатоголосий закадровий
кодек: 5.1
бітрейт: 448 кб/с

Аудіо # 2:
мова: іспанська
переклад: оригінал
кодек: E- 5.1
бітрейт: 640 кб/с
Info
Код:
Format                      :
Format version              : Version 4
File size                   : 1.70 GiB
Duration                    : 55 min 56 s
Overall bit rate mode       : Variable
Overall bit rate            : 4 338 kb/s
Movie name                  : Еліта / Elite - S01E01 (2018) 1080p [Ukr.Spa] [Цікава Ідея]
Encoded date                : UTC 2020-07-11 11:01:34
Writing application         : v6.8.0 ('Theme for Great Cities') 32bit built on Mar  2 2014 21:27:07
Writing library             : libebml v1.3.0 + v1.4.1
Cover                       : Yes
Attachments                 : cover.jpg

Video
ID                          : 1
Format                      : AVC
Format/Info                 : Advanced Video Codec
Format profile              : [email protected]
Format settings             : CABAC / 3 Ref Frames
Format settings, CABAC      : Yes
Format settings, Reference  : 3 frames
Codec ID                    : V_MPEG4/ISO/AVC
Duration                    : 55 min 56 s
Bit rate mode               : Variable
Bit rate                    : 3 320 kb/s
Maximum bit rate            : 4 980 kb/s
Width                       : 1 920 pixels
Height                      : 1 080 pixels
Display aspect ratio        : 16:9
Frame rate mode             : Constant
Frame rate                  : 25.000 FPS
Color space                 : YUV
Chroma subsampling          : 4:2:0
Bit depth                   : 8 bits
Scan type                   : Progressive
Bits/(Pixel*Frame)          : 0.064
Stream size                 : 1.24 GiB (73%)
Writing library             : core 148 r2715 7e75228
Encoding settings           : cabac=1 / ref=3 / deblock=1:0:0 / analyse=0x1:0x111 / me=umh / subme=10 / psy=1 / psy_rd=1.00:0.00 / mixed_ref=1 / me_range=24 / chroma_me=1 / trellis=2 / 8x8dct=0 / cqm=0 / deadzone=21,11 / fast_pskip=1 / chroma_qp_offset=-2 / threads=6 / lookahead_threads=1 / sliced_threads=0 / nr=0 / decimate=1 / interlaced=0 / bluray_compat=0 / stitchable=1 / constrained_intra=0 / bframes=2 / b_pyramid=0 / b_adapt=2 / b_bias=0 / direct=3 / weightb=1 / open_gop=0 / weightp=2 / keyint=50 / keyint_min=26 / scenecut=0 / intra_refresh=0 / rc_lookahead=50 / rc=2pass / mbtree=1 / bitrate=3320 / ratetol=1.0 / qcomp=0.50 / qpmin=6 / qpmax=51 / qpstep=4 / cplxblur=20.0 / qblur=0.5 / vbv_maxrate=4980 / vbv_bufsize=6640 / nal_hrd=vbr / filler=0 / ip_ratio=1.40 / aq=1:1.00
Default                     : Yes
Forced                      : No

Audio #1
ID                          : 2
Format                      : AC-3
Format/Info                 : Audio Coding 3
Commercial name             : Dolby Digital
Codec ID                    : A_AC3
Duration                    : 55 min 56 s
Bit rate mode               : Constant
Bit rate                    : 448 kb/s
Channel(s)                  : 6 channels
Channel layout              : L R C LFE Ls Rs
Sampling rate               : 48.0 kHz
Frame rate                  : 31.250 FPS (1536 SPF)
Bit depth                   : 16 bits
Compression mode            : Lossy
Stream size                 : 179 MiB (10%)
Title                       : Цікава Ідея
Language                    : Ukrainian
Service kind                : Complete Main
Default                     : Yes
Forced                      : No

Audio #2
ID                          : 3
Format                      : E-AC-3
Format/Info                 : Enhanced AC-3
Commercial name             : Dolby Digital Plus
Codec ID                    : A_EAC3
Duration                    : 55 min 56 s
Bit rate mode               : Constant
Bit rate                    : 640 kb/s
Channel(s)                  : 6 channels
Channel layout              : L R C LFE Ls Rs
Sampling rate               : 48.0 kHz
Frame rate                  : 31.250 FPS (1536 SPF)
Compression mode            : Lossy
Stream size                 : 256 MiB (15%)
Title                       : Castilian
Language                    : Spanish
Service kind                : Complete Main
Default                     : No
Forced                      : No
Скріншоти

Еліта (Сезон 2) / Elite (Season 2) (2019) 1080p Ukr/Spa

Тривалість: 1 серія: ~ 50 хв. (цілком серій: 8)
Перелік серій:

01. 20 horas desaparecido
02. 34 horas desaparecido
03. 36 horas desaparecido
04. 59 horas desaparecido
05. 63 horas desaparecido
06. 66 horas desaparecido
07. 84 horas desaparecido
08. 0 horas desaparecido
Якість: 1080p
Відео:
кодек:
розмір кадру: 1920 x 1080
бітрейт: ~ 5000 кб/с

Аудіо # 1:
мова: українська | "Цікава Ідея"
переклад: професійний багатоголосий закадровий
кодек: 5.1
бітрейт: 448 кб/с

Аудіо # 2:
мова: іспанська
переклад: оригінал
кодек: E- 5.1
бітрейт: 640 кб/с
Info
Код:
Format                      :
Format version              : Version 4
File size                   : 1.91 GiB
Duration                    : 51 min 58 s
Overall bit rate mode       : Variable
Overall bit rate            : 5 275 kb/s
Movie name                  : Еліта / Elite - S02E01 (2019) 1080p [Ukr.Spa] [Цікава Ідея]
Encoded date                : UTC 2020-08-05 16:47:30
Writing application         : v6.8.0 ('Theme for Great Cities') 32bit built on Mar  2 2014 21:27:07
Writing library             : libebml v1.3.0 + v1.4.1
Cover                       : Yes
Attachments                 : cover.jpg

Video
ID                          : 1
Format                      : AVC
Format/Info                 : Advanced Video Codec
Format profile              : [email protected]
Format settings             : CABAC / 3 Ref Frames
Format settings, CABAC      : Yes
Format settings, Reference  : 3 frames
Codec ID                    : V_MPEG4/ISO/AVC
Duration                    : 51 min 58 s
Bit rate mode               : Variable
Bit rate                    : 4 220 kb/s
Maximum bit rate            : 6 330 kb/s
Width                       : 1 920 pixels
Height                      : 1 080 pixels
Display aspect ratio        : 16:9
Frame rate mode             : Constant
Frame rate                  : 25.000 FPS
Color space                 : YUV
Chroma subsampling          : 4:2:0
Bit depth                   : 8 bits
Scan type                   : Progressive
Bits/(Pixel*Frame)          : 0.081
Stream size                 : 1.48 GiB (77%)
Writing library             : core 148 r2715 7e75228
Encoding settings           : cabac=1 / ref=3 / deblock=1:0:0 / analyse=0x1:0x111 / me=umh / subme=10 / psy=1 / psy_rd=1.00:0.00 / mixed_ref=1 / me_range=24 / chroma_me=1 / trellis=2 / 8x8dct=0 / cqm=0 / deadzone=21,11 / fast_pskip=1 / chroma_qp_offset=-2 / threads=8 / lookahead_threads=1 / sliced_threads=0 / nr=0 / decimate=1 / interlaced=0 / bluray_compat=0 / stitchable=1 / constrained_intra=0 / bframes=2 / b_pyramid=0 / b_adapt=2 / b_bias=0 / direct=3 / weightb=1 / open_gop=0 / weightp=2 / keyint=250 / keyint_min=25 / scenecut=0 / intra_refresh=0 / rc_lookahead=50 / rc=2pass / mbtree=1 / bitrate=4220 / ratetol=1.0 / qcomp=0.50 / qpmin=6 / qpmax=51 / qpstep=4 / cplxblur=20.0 / qblur=0.5 / vbv_maxrate=6330 / vbv_bufsize=8440 / nal_hrd=vbr / filler=0 / ip_ratio=1.40 / aq=1:1.00
Default                     : Yes
Forced                      : No

Audio #1
ID                          : 2
Format                      : AC-3
Format/Info                 : Audio Coding 3
Commercial name             : Dolby Digital
Codec ID                    : A_AC3
Duration                    : 51 min 58 s
Bit rate mode               : Constant
Bit rate                    : 448 kb/s
Channel(s)                  : 6 channels
Channel layout              : L R C LFE Ls Rs
Sampling rate               : 48.0 kHz
Frame rate                  : 31.250 FPS (1536 SPF)
Bit depth                   : 16 bits
Compression mode            : Lossy
Stream size                 : 167 MiB (8%)
Title                       : Цікава Ідея
Language                    : Ukrainian
Service kind                : Complete Main
Default                     : Yes
Forced                      : No

Audio #2
ID                          : 3
Format                      : E-AC-3
Format/Info                 : Enhanced AC-3
Commercial name             : Dolby Digital Plus
Codec ID                    : A_EAC3
Duration                    : 51 min 58 s
Bit rate mode               : Constant
Bit rate                    : 640 kb/s
Channel(s)                  : 6 channels
Channel layout              : L R C LFE Ls Rs
Sampling rate               : 48.0 kHz
Frame rate                  : 31.250 FPS (1536 SPF)
Compression mode            : Lossy
Stream size                 : 238 MiB (12%)
Title                       : Castilian
Language                    : Spanish
Service kind                : Complete Main
Default                     : No
Forced                      : No
Скріншоти



Перекладено та озвучено творчим об'єднанням:
Ролі озвучили: Семен Птаха, Ольга Мотрич, Олександр Чернов, Юлія Малахова, Андрій Корзаченко та Олексій Сафін.


Авторський реліз (завантажувати можна без реєстрації)
 Трекер:    Зареєстрований   

Завантажити / скачати серіал українською



відео для новачків



 Зареєстрований:   2020-08-07 15:27
 Розмір:   28.09 GB 
 Оцінка серіалу:   9.3/10 (Голосів: 7)
   
DoctorLife 
Свій


З нами з: 19.04.10
Востаннє: 08.08.20
Повідомлень: 52

2020-07-24 02:02  
Цікавий з самого почату, без порогу входження. Не нудний, постійно є загадки та інтрига.
Дякую. Охоче гляну продовження.

Цікава ідея 
VIP


З нами з: 26.12.11
Востаннє: 07.08.20
Повідомлень: 554

2020-08-03 15:30  
Прохання перезавантажити 1-й сезон!
[тепер Надя без акценту, як і в оригіналі]


Бажаємо всім приємного перегляду.

Цікава ідея 
VIP


З нами з: 26.12.11
Востаннє: 07.08.20
Повідомлень: 554

2020-08-05 23:13  
Переклали та озвучили 2-й сезон!


Бажаємо всім приємного перегляду.

Цікава ідея 
VIP


З нами з: 26.12.11
Востаннє: 07.08.20
Повідомлень: 554

2020-08-07 15:29  
Прохання перезавантажити s02e01!
[виправлено помилку]


Бажаємо всім приємного перегляду.

Ваш часовий пояс: GMT + 2 Години

Нова тема   Відповісти