1939 / Glorious 39 (2009) AVC Ukr/Eng | sub Eng

Нові коментарі

Нова тема   Відповісти
Автор Повідомлення
Arsenfpu 
Відео Гуртом - фільмокрай
Відео Гуртом - фільмокрай


З нами з: 30.04.09
Востаннє: 05.08.20
Повідомлень: 7115

2020-07-19 21:52  
1939 / Glorious 39 (2009) AVC Ukr/Eng | sub Eng

1939 / Glorious 39 (2009) AVC Ukr/Eng | sub Eng


Жанр: драма, історичний, трилер
Країна: Велика Британія



Кінокомпанія: BBC Films, UK Film Council, Screen East Content Investment Fund
Режисер: Стівен Полякофф
Актори: Ромола Ґарай, Білл Найі, Джулі Крісті, Девід Теннант, Джуно Темпл, Едді Редмейн, Ас'єр Ньюмен, Крістофер Лі, Чарлі Кокс, Г'ю Бонневілль

Сюжет:
1939 рік, Англія. Ідеальне, на перший погляд, життя Анни Кієс починає валитися, коли вона випадково знаходить таємні записи, що свідчать про назріваючу між країнами Другу світову війну. Намагаючись визначити природу цих записів, Анна починає розплутувати справу, яке в підсумку приведе її до непоправних наслідків.


Тривалість: 02:08:30
Якість:
Відео:
кодек:
розмір кадру: 1 024 х 432
бітрейт: 2 200 кб/с

Аудіо # 1:
мова: українська
переклад: багатоголосий закадровий
кодек: 2.0
бітрейт: 192 кб/с

Аудіо # 2:
мова: англійська
переклад: оригінал
кодек: 2.0
бітрейт: 192 кб/с

Субтитри:
мова: англійська
тип: програмні (м'які)
формат: *.srt
Скріншоти














Про файл
General
Unique ID : 102164490478509076576753222574002751733 (0x4CDC2A470B8D19F7953AA2403DBD48F5)
Complete name : C:\Glorious 39 (2009) [Ukr,Eng] AVC [Hurtom].
Format :
Format version : Version 4 / Version 2
File size : 2.33 GiB
Duration : 2 h 9 min
Overall bit rate : 2 573 kb/s
Movie name : 1939 / Glorious 39 (2009)
Encoded date : UTC 2020-07-19 18:22:48
Writing application : v21.0.0 ('Tardigrades Will Inherit The Earth') 32-bit
Writing library : libebml v1.3.5 + v1.4.8
Cover : Yes
Attachments : cover.jpg

Video
ID : 1
Format : AVC
Format/Info : Advanced Video Codec
Format profile : [email protected]
Format settings, CABAC : Yes
Format settings, ReFrames : 8 frames
Codec ID : V_MPEG4/ISO/AVC
Duration : 2 h 8 min
Bit rate : 2 200 kb/s
Width : 1 024 pixels
Height : 432 pixels
Display aspect ratio : 2.40:1
Frame rate mode : Constant
Frame rate : 24.000 FPS
Color space : YUV
Chroma subsampling : 4:2:0
Bit depth : 8 bits
Scan type : Progressive
Bits/(Pixel*Frame) : 0.207
Stream size : 1.98 GiB (85%)
Writing library : core 157 r2969 d4099dd
Encoding settings : cabac=1 / ref=8 / deblock=1:-1:-1 / analyse=0x3:0x133 / me=umh / subme=10 / psy=1 / psy_rd=1.00:0.15 / mixed_ref=1 / me_range=32 / chroma_me=1 / trellis=2 / 8x8dct=1 / cqm=0 / deadzone=21,11 / fast_pskip=0 / chroma_qp_offset=-3 / threads=6 / lookahead_threads=1 / sliced_threads=0 / nr=0 / decimate=1 / interlaced=0 / bluray_compat=0 / constrained_intra=0 / bframes=6 / b_pyramid=2 / b_adapt=2 / b_bias=0 / direct=3 / weightb=1 / open_gop=0 / weightp=2 / keyint=240 / keyint_min=24 / scenecut=40 / intra_refresh=0 / rc_lookahead=60 / rc=2pass / mbtree=1 / bitrate=2200 / ratetol=1.0 / qcomp=0.60 / qpmin=0 / qpmax=69 / qpstep=4 / cplxblur=20.0 / qblur=0.5 / vbv_maxrate=31250 / vbv_bufsize=31250 / nal_hrd=none / filler=0 / ip_ratio=1.40 / aq=1:1.00
Default : Yes
Forced : No

Audio #1
ID : 2
Format : AC-3
Format/Info : Audio Coding 3
Mode extension : CM (complete main)
Format settings, Endianness : Big
Codec ID : A_AC3
Duration : 2 h 8 min
Bit rate mode : Constant
Bit rate : 192 kb/s
Channel(s) : 2 channels
Channel positions : Front: L R
Sampling rate : 48.0 kHz
Frame rate : 31.250 FPS (1536 spf)
Compression mode : Lossy
Stream size : 177 MiB (7%)
Title : amc
Language : Ukrainian
Default : Yes
Forced : Yes

Audio #2
ID : 3
Format : AC-3
Format/Info : Audio Coding 3
Mode extension : CM (complete main)
Format settings, Endianness : Big
Codec ID : A_AC3
Duration : 2 h 9 min
Bit rate mode : Constant
Bit rate : 192 kb/s
Channel(s) : 2 channels
Channel positions : Front: L R
Sampling rate : 48.0 kHz
Frame rate : 31.250 FPS (1536 spf)
Compression mode : Lossy
Stream size : 178 MiB (7%)
Language : English
Default : No
Forced : No

Text
ID : 4
Format : UTF-8
Codec ID : S_TEXT/UTF8
Codec ID/Info : UTF-8 Plain Text
Duration : 2 h 3 min
Bit rate : 67 b/s
Count of elements : 1612
Stream size : 61.4 KiB (0%)
Language : English
Default : Yes
Forced : No
Джерело:
За українську доріжку дякую п. slavik_v_z, Gelios
Особиста оцінка: не дивився


 Трекер:    Зареєстрований   

Завантажити / скачати фільм українською



відео для новачків



 Зареєстрований:   2020-07-19 21:52
 Розмір:   2.33 GB 
 Оцінка фільму:   7.4/10 (Голосів: 10)
   
Інші релізи
   1939 / Glorious 39 (2009) Gelios  3 / 0   1.44 GB   2016-09-16 07:30 
westhirurg 
Новенький


З нами з: 06.08.13
Востаннє: 05.08.20
Повідомлень: 16

2020-07-25 12:12  
Цікавий задум. Дивна інтерпретація. Якась занадто примітивна реалізація. Якщо не шкода двох годин часу, можна дивитися...
Ваш часовий пояс: GMT + 2 Години

Нова тема   Відповісти