Формула 1. Сезон 2020. Етап 3. Гран-Прі Угорщини. Гонка (19.07.2020) HDTV 1080i 2xUkr/Pol

Нові коментарі

Нова тема   Відповісти
Автор Повідомлення
sergiyko.5 
VIP


З нами з: 25.02.16
Востаннє: 26.10.20
Повідомлень: 3618

2020-07-19 17:44  
Формула 1. Сезон 2020. Етап 3. Гран-Прі Угорщини. Гонка (19.07.2020) HDTV 1080i 2xUkr/Pol


Формула 1. Сезон 2020. Етап 3. Гран-Прі Угорщини. Гонка (19.07.2020) HDTV 1080i 2xUkr/Pol

Жанр: Перегони Формули 1
Країна: Угорщина
Телеканал: Eleven Sports 1 HD
Коментар: Максим Подзігун (1), Роман Гончаров (2), польська (3)

Опис:
Гонка третього етапу Гран-Прі Угорщини 2020 року.


Якість: HDTV

Відео:кодек: розмір кадру: 1920 х 1080 бітрейт: 6800 кб/с 25 кад/с
Аудіо 1: мова: українська кодек: 2.0 бітрейт: 192 кб/с
Аудіо 2: мова: українська кодек: 2.0 бітрейт: 192 кб/с
Аудіо 3: мова: польська кодек: 2.0 бітрейт: 160 кб/с
Тривалість:
02:01:44
Про файл:
General
Unique ID : 308622073995550926198589260507138827439 (0xE82E730A9CF1A5FDED4A7697C44524AF)
Complete name : \\Nas0257aa\video\SPORT_02\Formula 1\F1.2020.03.Hungary.Race.1080i.HDTV.Ukr.Pol.
Format :
Format version : Version 4
File size : 6.25 GiB
Duration : 2 h 1 min
Overall bit rate : 7 347 kb/s
Movie name : rip by sergiyko
Encoded date : UTC 2020-07-19 16:14:14
Writing application : v47.0.0 ('Black Flag') 64-bit
Writing library : libebml v1.3.10 + v1.5.2

Video
ID : 1
Format : AVC
Format/Info : Advanced Video Codec
Format profile : [email protected]
Format settings : CABAC / 4 Ref Frames
Format settings, CABAC : Yes
Format settings, Reference : 4 frames
Codec ID : V_MPEG4/ISO/AVC
Duration : 2 h 1 min
Bit rate : 6 801 kb/s
Width : 1 920 pixels
Height : 1 080 pixels
Display aspect ratio : 16:9
Frame rate mode : Constant
Frame rate : 25.000 FPS
Standard : Component
Color space : YUV
Chroma subsampling : 4:2:0
Bit depth : 8 bits
Scan type : Interlaced
Scan type, store method : Separated fields
Scan order : Top Field First
Bits/(Pixel*Frame) : 0.131
Stream size : 5.78 GiB (93%)
Language : English
Default : Yes
Forced : No
Color range : Limited
Color primaries : BT.709
Transfer characteristics : BT.709
Matrix coefficients : BT.709

Audio #1
ID : 2
Format : AC-3
Format/Info : Audio Coding 3
Commercial name : Dolby Digital
Codec ID : A_AC3
Duration : 2 h 1 min
Bit rate mode : Constant
Bit rate : 192 kb/s
Channel(s) : 2 channels
Channel layout : L R
Sampling rate : 48.0 kHz
Frame rate : 31.250 FPS (1536 SPF)
Compression mode : Lossy
Stream size : 167 MiB (3%)
Title : Максим Подзігун
Language : Ukrainian
Service kind : Complete Main
Default : Yes
Forced : Yes

Audio #2
ID : 3
Format : AC-3
Format/Info : Audio Coding 3
Commercial name : Dolby Digital
Codec ID : A_AC3
Duration : 2 h 1 min
Bit rate mode : Constant
Bit rate : 192 kb/s
Channel(s) : 2 channels
Channel layout : L R
Sampling rate : 48.0 kHz
Frame rate : 31.250 FPS (1536 SPF)
Compression mode : Lossy
Stream size : 167 MiB (3%)
Title : Роман Гончаров
Language : Ukrainian
Service kind : Complete Main
Default : No
Forced : No

Audio #3
ID : 4
Format : AC-3
Format/Info : Audio Coding 3
Commercial name : Dolby Digital
Codec ID : A_AC3
Duration : 2 h 1 min
Bit rate mode : Constant
Bit rate : 160 kb/s
Channel(s) : 2 channels
Channel layout : L R
Sampling rate : 48.0 kHz
Frame rate : 31.250 FPS (1536 SPF)
Compression mode : Lossy
Stream size : 139 MiB (2%)
Title : Eleven Sports 1 HD
Language : Polish
Service kind : Complete Main
Default : No
Forced : No
Скріншоти:


Запис/зведення: sergiyko



Срібний реліз (на рейтинг впливає 50% завантаженого)
 Трекер:    Зареєстрований   

Завантажити / скачати торрент



відео для новачків



 Зареєстрований:   2020-07-19 18:18
 Розмір:   6.25 GB 
 Оцінка:   10/10 (Голосів: 30)
   
cergunya 
Новенький


З нами з: 02.11.19
Востаннє: 17.09.20
Повідомлень: 1

2020-07-19 18:09  
Файл не прикріплений
sergiyko.5 
VIP


З нами з: 25.02.16
Востаннє: 26.10.20
Повідомлень: 3618

2020-07-19 18:11  
Бо ще створюється
Ant_SUmy 
Новенький


З нами з: 07.09.08
Востаннє: 26.10.20
Повідомлень: 5

2020-07-19 18:46  
Дякую!
Dron1994 
Частий відвідувач


З нами з: 07.07.14
Востаннє: 25.10.20
Повідомлень: 33

2020-07-21 15:04  
Судячи з усього - сезон пройде чисто на самовозі мерсів, а в спину їм буде дихати рожевий мерс минулого року. Гонка в Австрії була трохи цікавіша, а в Угорщині тільки кваліфікація була непоганою.
Ваш часовий пояс: GMT + 2 Години

Нова тема   Відповісти