Дивні Дива (Сезон 2) / Stranger Things (Season 2) (2017) UHD 2160p 4K HDR H.265 Ukr/Eng | Sub Ukr/Eng

Нові коментарі

Нова тема   Відповісти
Автор Повідомлення
RoMeL 
Відео Гуртом - підтримка та поширення
Відео Гуртом - підтримка та поширення


З нами з: 09.07.08
Востаннє: 08.08.20
Повідомлень: 158

2020-07-19 11:40  
Дивні Дива (Сезон 2) / Stranger Things (Season 2) (2017) UHD 2160p 4K HDR H.265 Ukr/Eng | Sub Ukr/Eng



Жанр: психологічний, трилер, жахи, фантастика, пригодницький
Країна: США



Кінокомпанія: Netflix
Режисери: Метт Даффер, Росс Даффер, Шон Леві
Актори: Вайнона Райдер, Девід Гарбор, Фін Вулфгард, Майллі Боббі Браун, Ґейтен Матараццо, Калеб Маклафлін, Наталія Дайер, Чарлі Гітон, Кара Буоно, Меттью Модайн, Шон Астін та Пол Райзер.

Сюжет:
Минув рік від дня перемоги над почварою з паралельного виміру. Дивні Дива знову відбуваються у маленькому містечку Гокінзі. Нова загроза об'єднує героїв за для розкриття таємниць минулого, боротьби з потойбічним істотами і порятунку Вілла Баєрса.


Перекладено та озвучено студією Т.С. Cтруґачка

Тривалість: 1 серія: 45:00 (цілком серій: 9)
Перелік серій
1.«Шалений Макс»
«MadMax»

2.«Цукерки, або смерть, вилупку»
«Trick or Treat, Freak»

3.«Пуголовок»
«Pollywog»

4.«Вілл Мудрий»
«Will the Wise»

5.«Діґ Даґ»
«Dig Dug»

6.«Шпигун»
«The Spy»

7.«Сестра, що загубилася»
«The Lost Sister»

8.«Проникач свідомості»
«The Mind Flayer»

9.«Брама»
«The Gate»
Якість: 4K 2160p HDR H.265
Відео:
кодек: H.265 (HEVC)
розмір кадру: 3840 х 1920
бітрейт: ~17,4 Мбіт/сек (залежить від серії)
бітова глибина: 10 біт
кольоровий простір: BT.2020 (HDR)

Увага! Перед завантаженням переконайтесь, що ваш пристрій відтворення (та/або ПЗ) підтримує H.265 (HEVC)

Аудіо # 1:
мова: українська
переклад: багатоголосий закадровий | творча спільнота Cтруґачка
кодек: 5.1
бітрейт: 640 кб/с

Аудіо # 2:
мова: англійська
переклад: оригінал
кодек: XLL (Digital Theater Systems)
бітрейт: 3372 кб/с

Субтитри # 1:
мова: українська
тип: програмні (м'які)
формат: *.srt

Субтитри # 2-3:
мова: англійська (Full, SDH)
тип: програмні (м'які)
формат: *.srt
Info

Код:
General
Unique ID                                : 267009759899749300557944045714338228169 (0xC8E0358E5B9778C5BFF77907EBF027C9)
Complete name                            : /Volumes/Download/Shows/Stranger.Things.S02.2017..2160p.HDR.[Ukr.Eng]/Stranger.Things.S02E01.2017..2160p.HDR.[Ukr.Eng].
Format                                   :
Format version                           : Version 4
File size                                : 7.04 GiB
Duration                                 : 47mn 49s
Overall bit rate mode                    : Variable
Overall bit rate                         : 21.1 Mbps
Movie name                               : Stranger.Things.S02E01.2017..2160p.[Ukr.Eng]
Encoded date                             : UTC 2020-07-18 12:13:44
Writing application                      : v47.0.0 ('Black Flag') 64-bit
Writing library                          : libebml v1.3.10 + v1.5.2

Video
ID                                       : 1
Format                                   : HEVC
Format/Info                              : High Efficiency Video Coding
Format profile                           : Main [email protected]@High
HDR format                               : SMPTE ST 2086, HDR10 compatible
Codec ID                                 : V_MPEGH/ISO/HEVC
Duration                                 : 46mn 55s
Bit rate                                 : 17.4 Mbps
Width                                    : 3 840 pixels
Height                                   : 1 920 pixels
Display aspect ratio                     : 2.000
Frame rate mode                          : Constant
Frame rate                               : 23.976 (24000/1001) fps
Color space                              : YUV
Chroma subsampling                       : 4:2:0 (Type 2)
Bit depth                                : 10 bits
Bits/(Pixel*Frame)                       : 0.099
Stream size                              : 5.72 GiB (81%)
Writing library                          : x265 2.8+58-d17bc7714ed2:[Windows][GCC 8.2.0][64 bit] 10bit
Encoding settings                        : cpuid=1111039 / frame-threads=5 / numa-pools=36 / wpp / no-pmode / no-pme / no-psnr / no-ssim / log-level=2 / input-csp=1 / input-res=3840x1920 / interlace=0 / total-frames=67504 / level-idc=51 / high-tier=1 / uhd-bd=0 / ref=4 / no-allow-non-conformance / repeat-headers / annexb / aud / hrd / info / hash=0 / no-temporal-layers / no-open-gop / min-keyint=24 / keyint=240 / gop-lookahead=0 / bframes=4 / b-adapt=2 / b-pyramid / bframe-bias=0 / rc-lookahead=25 / lookahead-slices=4 / scenecut=40 / radl=0 / no-intra-refresh / ctu=64 / min-cu-size=8 / rect / no-amp / max-tu-size=32 / tu-inter-depth=1 / tu-intra-depth=1 / limit-tu=0 / rdoq-level=2 / dynamic-rd=0.00 / no-ssim-rd / signhide / no-tskip / nr-intra=0 / nr-inter=0 / no-constrained-intra / no-strong-intra-smoothing / max-merge=3 / limit-refs=3 / limit-modes / me=3 / subme=3 / merange=57 / temporal-mvp / weightp / no-weightb / no-analyze-src-pics / deblock=-3:-3 / no-sao / no-sao-non-deblock / rd=4 / no-early-skip / rskip / no-fast-intra / no-tskip-fast / no-cu-lossless / no-b-intra / no-splitrd-skip / rdpenalty=0 / psy-rd=2.00 / psy-rdoq=1.00 / no-rd-refine / no-lossless / cbqpoffs=0 / crqpoffs=0 / rc=crf / crf=17.0 / qcomp=0.60 / qpstep=4 / stats-write=0 / stats-read=0 / vbv-maxrate=160000 / vbv-bufsize=160000 / vbv-init=0.9 / crf-max=0.0 / crf-min=0.0 / ipratio=1.40 / pbratio=1.30 / aq-mode=1 / aq-strength=1.00 / cutree / zone-count=0 / no-strict-cbr / qg-size=32 / no-rc-grain / qpmax=69 / qpmin=0 / no-const-vbv / sar=1 / overscan=0 / videoformat=5 / range=0 / colorprim=9 / transfer=16 / colormatrix=9 / chromaloc=1 / chromaloc-top=2 / chromaloc-bottom=2 / display-window=0 / master-display=G(13250,34500)B(7500,3000)R(34000,16000)WP(15635,16450)L(10000000,50) / max-cll=0,0 / min-luma=0 / max-luma=1023 / log2-max-poc-lsb=8 / vui-timing-info / vui-hrd-info / slices=1 / no-opt-qp-pps / no-opt-ref-list-length-pps / no-multi-pass-opt-rps / scenecut-bias=0.05 / no-opt-cu-delta-qp / no-aq-motion / hdr / hdr-opt / no-dhdr10-opt / no-idr-recovery-sei / analysis-reuse-level=5 / scale-factor=0 / refine-intra=0 / refine-inter=0 / refine-mv=0 / no-limit-sao / ctu-info=0 / no-lowpass-dct / refine-mv-type=0 / copy-pic=1 / max-ausize-factor=1.0 / no-dynamic-refine / no-single-sei
Default                                  : Yes
Forced                                   : No
Color range                              : Limited
Color primaries                          : BT.2020
Transfer characteristics                 : PQ
Matrix coefficients                      : BT.2020 non-constant
Mastering display color primaries        : Display P3
Mastering display luminance              : min: 0.0050 cd/m2, max: 1000 cd/m2

Audio #1
ID                                       : 2
Format                                   : AC-3
Format/Info                              : Audio Coding 3
Commercial name                          : Dolby Digital
Codec ID                                 : A_AC3
Duration                                 : 47mn 49s
Bit rate mode                            : Constant
Bit rate                                 : 640 Kbps
Channel(s)                               : 6 channels
Channel layout                           : L R C LFE Ls Rs
Sampling rate                            : 48.0 KHz
Frame rate                               : 31.250 fps (1536 SPF)
Compression mode                         : Lossy
Stream size                              : 219 MiB (3%)
Language                                 : Ukrainian
Service kind                             : Complete Main
Default                                  : Yes
Forced                                   : No

Audio #2
ID                                       : 3
Format                                   : XLL
Format/Info                              : Digital Theater Systems
Commercial name                          : -HD Master Audio
Codec ID                                 : A_DTS
Duration                                 : 46mn 55s
Bit rate mode                            : Variable
Bit rate                                 : 3 372 Kbps
Channel(s)                               : 6 channels
Channel layout                           : C L R Ls Rs LFE
Sampling rate                            : 48.0 KHz
Frame rate                               : 93.750 fps (512 SPF)
Bit depth                                : 24 bits
Compression mode                         : Lossless
Stream size                              : 1.11 GiB (16%)
Language                                 : English
Default                                  : No
Forced                                   : No

Text #1
ID                                       : 4
Format                                   : UTF-8
Codec ID                                 : S_TEXT/UTF8
Codec ID/Info                            : UTF-8 Plain Text
Duration                                 : 44mn 39s
Bit rate                                 : 93 bps
Count of elements                        : 580
Stream size                              : 30.7 KiB (0%)
Language                                 : Ukrainian
Default                                  : No
Forced                                   : No

Text #2
ID                                       : 5
Format                                   : UTF-8
Codec ID                                 : S_TEXT/UTF8
Codec ID/Info                            : UTF-8 Plain Text
Duration                                 : 44mn 2s
Bit rate                                 : 58 bps
Count of elements                        : 512
Stream size                              : 18.8 KiB (0%)
Title                                    : Stripped SRT
Language                                 : English
Default                                  : No
Forced                                   : No

Text #3
ID                                       : 6
Format                                   : UTF-8
Codec ID                                 : S_TEXT/UTF8
Codec ID/Info                            : UTF-8 Plain Text
Duration                                 : 44mn 39s
Bit rate                                 : 63 bps
Count of elements                        : 579
Stream size                              : 20.7 KiB (0%)
Title                                    : SDH SRT
Language                                 : English
Default                                  : No
Forced                                   : No
Скріншоти




Джерело: Т.С. Cтруґачка & &
Особиста оцінка: 10 - без зайвих вагань рекомендую всім!



Авторський реліз (завантажувати можна без реєстрації)
 Трекер:    Зареєстрований   

Завантажити / скачати серіал українською



відео для новачків



 Зареєстрований:   2020-07-19 11:40
 Розмір:   59.56 GB 
 Оцінка серіалу:   10/10 (Голосів: 1)
   
-_-B_Е_N_D_E_R-_- 
VIP


З нами з: 04.03.20
Востаннє: 08.08.20
Повідомлень: 347

2020-07-19 17:10  
Ваш часовий пояс: GMT + 2 Години

Нова тема   Відповісти