Мафія! (Мафія Джейн Остін) / Jane Austen's Mafia! (1998) AVC Ukr/Eng | Sub Eng

Нові коментарі

Нова тема   Відповісти
Автор Повідомлення
staf777 
Відео Гуртом - підтримка та поширення
Відео Гуртом - підтримка та поширення


З нами з: 16.11.16
Востаннє: 10.08.20
Повідомлень: 3934

2020-07-18 20:44  
Мафія! (Мафія Джейн Остін) / Jane Austen's Mafia! (1998) AVC Ukr/Eng | Sub Eng

Мафія! (Мафія Джейн Остін) / Jane Austen's Mafia! (1998) AVC Ukr/Eng | Sub Eng


Жанр: комедія, пародія, кримінал
Країна: США



Кінокомпанія: Touchstone Pictures
Режисер: Джим Абрахамс
Актори: Джей Мор, Біллі Берк, Крістіна Епплгейт, Памела Гідлі, Олімпія Дукакіс, Ллойд Бріджес, Джейсон Фучс, Джо Вітереллі, Тоні Ло Б'янко, Блейк Хеммонд

Сюжет:
Головний герой Дон Вінченцо Кортіно - голова дивно неорганізованого злочинного угруповання.
В результаті мафіозних розборок на хрещеного батька здійснюється підступний замах - в нього стріляють 47 разів, і це змушує Дона Кортіно
замислитися над сенсом життя.
Патріарху кримінального світу потрібний гідний наступник, який зможе остаточно дезорганізувати злочинність в країні.
У синьйора Вінченцо два сини: один - відважний герой війни, інший - закінчений психопат і наркоман. Кого ж вибере мудрий Дон? ...

«Мафія!» (Англ. Mafia!; оригінальна назва - Jane Austen's Mafia!, що в перекладі означає Мафія Джейн Остін!) - пародійна комедія на гангстерські фільми, зокрема трилогію «Хрещений батько», «Обличчя зі шрамом», «Казино », а також на фільми інших жанрів, наприклад, «Форрест Гамп».


Тривалість: 01:26:47
Якість: AVC
Відео:
кодек:
розмір кадру: 1024x576
бітрейт: 2500 кб/с

Аудіо # 1:
мова: українська
переклад: багатоголосий закадровий
кодек: 2.0
бітрейт: 192 кб/с

Аудіо # 2:
мова: англійська
переклад: оригінал
кодек: 2.0
бітрейт: 192 кб/с

Джерело озвучення:


Субтитри:
мова: англійська
тип: програмні (м'які)
формат: *.srt
Info
General
Unique ID : 78818628865127905307515594434440124511 (0x3B4BEA6EA31E3FCD6E6A23819084D85F)
Complete name : Z:\Фільми AVC\Комедія\Jane Austen's Mafia! (1998) AVC [UKR_ENG] [Hurtom].
Format :
Format version : Version 4
File size : 1.75 GiB
Duration : 1 h 26 min
Overall bit rate : 2 886 kb/s
Movie name : Мафія! (Мафія Джейн Остін) / Jane Austen's Mafia! (1998) AVC [UKR_ENG] [Hurtom]
Encoded date : UTC 2020-07-18 17:42:21
Writing application : v46.0.0 ('No Deeper Escape') 64-bit
Writing library : libebml v1.3.10 + v1.5.2
Cover : Yes
Attachments : cover.jpg

Video
ID : 1
Format : AVC
Format/Info : Advanced Video Codec
Format profile : [email protected]
Format settings : CABAC / 4 Ref Frames
Format settings, CABAC : Yes
Format settings, Reference : 4 frames
Codec ID : V_MPEG4/ISO/AVC
Duration : 1 h 26 min
Bit rate : 2 500 kb/s
Width : 1 024 pixels
Height : 576 pixels
Display aspect ratio : 16:9
Frame rate mode : Constant
Frame rate : 23.976 (24000/1001) FPS
Color space : YUV
Chroma subsampling : 4:2:0
Bit depth : 8 bits
Scan type : Progressive
Bits/(Pixel*Frame) : 0.177
Stream size : 1.52 GiB (87%)
Title : Mafia.1998..(AVC).Agentx
Writing library : core 157 r2935 545de2f
Encoding settings : cabac=1 / ref=2 / deblock=1:0:0 / analyse=0x1:0x111 / me=hex / subme=6 / psy=1 / psy_rd=1.00:0.00 / mixed_ref=1 / me_range=16 / chroma_me=1 / trellis=1 / 8x8dct=0 / cqm=0 / deadzone=21,11 / fast_pskip=1 / chroma_qp_offset=-2 / threads=12 / lookahead_threads=2 / sliced_threads=0 / nr=0 / decimate=1 / interlaced=0 / bluray_compat=0 / constrained_intra=0 / bframes=3 / b_pyramid=2 / b_adapt=1 / b_bias=0 / direct=1 / weightb=1 / open_gop=0 / weightp=1 / keyint=240 / keyint_min=24 / scenecut=40 / intra_refresh=0 / rc_lookahead=30 / rc=2pass / mbtree=1 / bitrate=2500 / ratetol=1.0 / qcomp=0.60 / qpmin=0 / qpmax=69 / qpstep=4 / cplxblur=20.0 / qblur=0.5 / vbv_maxrate=20000 / vbv_bufsize=25000 / nal_hrd=none / filler=0 / ip_ratio=1.40 / aq=1:1.00
Default : Yes
Forced : No
Color range : Limited
Color primaries : BT.709
Transfer characteristics : BT.709
Matrix coefficients : BT.709

Audio #1
ID : 2
Format : AC-3
Format/Info : Audio Coding 3
Commercial name : Dolby Digital
Codec ID : A_AC3
Duration : 1 h 26 min
Bit rate mode : Constant
Bit rate : 192 kb/s
Channel(s) : 2 channels
Channel layout : L R
Sampling rate : 48.0 kHz
Frame rate : 31.250 FPS (1536 SPF)
Compression mode : Lossy
Delay relative to video : -5 ms
Stream size : 119 MiB (7%)
Title : , 2 ch, 192 Kbps, Українська ICTV
Language : Ukrainian
Service kind : Complete Main
Default : Yes
Forced : Yes

Audio #2
ID : 3
Format : AC-3
Format/Info : Audio Coding 3
Commercial name : Dolby Digital
Codec ID : A_AC3
Duration : 1 h 26 min
Bit rate mode : Constant
Bit rate : 192 kb/s
Channel(s) : 2 channels
Channel layout : L R
Sampling rate : 48.0 kHz
Frame rate : 31.250 FPS (1536 SPF)
Compression mode : Lossy
Delay relative to video : -5 ms
Stream size : 119 MiB (7%)
Title : , 2 ch, 192 Kbps, Original
Language : English
Service kind : Complete Main
Default : No
Forced : No

Text
ID : 4
Format : UTF-8
Codec ID : S_TEXT/UTF8
Codec ID/Info : UTF-8 Plain Text
Duration : 1 h 26 min
Bit rate : 56 b/s
Count of elements : 887
Stream size : 36.0 KiB (0%)
Language : English
Default : No
Forced : No

Menu
00:00:00.000 : en:Chapter 01
00:05:55.355 : en:Chapter 02
00:14:10.015 : en:Chapter 03
00:22:36.229 : en:Chapter 04
00:32:31.240 : en:Chapter 05
00:41:40.789 : en:Chapter 06
00:49:21.208 : en:Chapter 07
00:57:02.293 : en:Chapter 08
01:01:39.570 : en:Chapter 09
01:08:44.954 : en:Chapter 10
01:14:38.474 : en:Chapter 11
01:20:54.599 : en:Chapter 12
01:26:46.993 : en:Chapter 13
Скріншоти
Джерело:


Срібний реліз (на рейтинг впливає 50% завантаженого)
 Трекер:    Зареєстрований   

Завантажити / скачати фільм українською



відео для новачків



 Зареєстрований:   2020-07-18 20:52
 Розмір:   1.75 GB 
 Оцінка фільму:   9.1/10 (Голосів: 11)
   
bot 
робот


З нами з: 30.09.07
Востаннє: 26.05.05
Повідомлень: 25217

2020-07-18 20:52  
Тему перенесено з Анонси релізів до форуму Фільми


staf777

Ваш часовий пояс: GMT + 2 Години

Нова тема   Відповісти