Формула 1. Сезон 2020. Етап 3. Гран-Прі Угорщини. Кваліфікація (18.07.2020) IPTV 1080p

Нові коментарі

Нова тема   Відповісти
Автор Повідомлення
sergiyko.5 
Забанено
Забанено


З нами з: 25.02.16
Востаннє: 29.10.20
Повідомлень: 3651

2020-07-18 19:21  
Формула 1. Сезон 2020. Етап 3. Гран-Прі Угорщини. Кваліфікація (18.07.2020) IPTV 1080p


Формула 1. Сезон 2020. Етап 3. Гран-Прі Угорщини. Кваліфікація (18.07.2020) IPTV 1080p

Жанр: Перегони Формули 1
Країна: Угорщина
Телеканал: Setanta Sport HD
Коментар: Максим Подзігун

Опис:
Кваліфікація третього етапу Гран-Прі Угорщини 2020 року.


Якість: IPTV

Відео:кодек: розмір кадру: 1920 х 1080 бітрейт: 8000 кб/с 50 кад/с
Аудіо: мова: українська кодек: 2.0 бітрейт: 192 кб/с
Тривалість:
01:13:17
Про файл:
General
Unique ID : 56675601589892252557093441613390122929 (0x2AA352E5FC826C3303EA063E5B6F8FB1)
Complete name : D:\Documents\Torrents\SPORT\Formula 1\F1.2020.03.Hungary.Qualifying.1080p.IPTV.
Format :
Format version : Version 4
File size : 4.17 GiB
Duration : 1 h 13 min
Overall bit rate mode : Variable
Overall bit rate : 8 153 kb/s
Encoded date : UTC 2020-07-18 18:01:30
Writing application : v47.0.0 ('Black Flag') 64-bit
Writing library : libebml v1.3.10 + v1.5.2

Video
ID : 1
Format : AVC
Format/Info : Advanced Video Codec
Format profile : [email protected]
Format settings : CABAC / 2 Ref Frames
Format settings, CABAC : Yes
Format settings, Reference : 2 frames
Format settings, GOP : M=3, N=50
Codec ID : V_MPEG4/ISO/AVC
Duration : 1 h 13 min
Bit rate mode : Variable
Bit rate : 7 999 kb/s
Width : 1 920 pixels
Height : 1 080 pixels
Display aspect ratio : 16:9
Frame rate mode : Constant
Frame rate : 50.000 FPS
Color space : YUV
Chroma subsampling : 4:2:0
Bit depth : 8 bits
Scan type : Progressive
Bits/(Pixel*Frame) : 0.077
Stream size : 4.07 GiB (98%)
Language : English
Default : Yes
Forced : No

Audio
ID : 2
Format : AC-3
Format/Info : Audio Coding 3
Commercial name : Dolby Digital
Codec ID : A_AC3
Duration : 1 h 13 min
Bit rate mode : Constant
Bit rate : 192 kb/s
Channel(s) : 2 channels
Channel layout : L R
Sampling rate : 48.0 kHz
Frame rate : 31.250 FPS (1536 SPF)
Compression mode : Lossy
Delay relative to video : 20 ms
Stream size : 101 MiB (2%)
Title : Максим Подзігун
Language : Ukrainian
Service kind : Complete Main
Default : Yes
Forced : No
Скріншоти:


Запис/зведення: sergiyko



 Трекер:    Зареєстрований   

Завантажити / скачати торрент



відео для новачків



 Зареєстрований:   2020-07-18 20:10
 Розмір:   4.17 GB 
 Оцінка:   10/10 (Голосів: 31)
   
VicCob 
Свій


З нами з: 16.06.10
Востаннє: 25.10.20
Повідомлень: 58

2020-07-18 21:16  
Дякую!
Did_tyu 
Новенький


З нами з: 16.09.18
Востаннє: 23.09.20
Повідомлень: 2

2020-07-18 23:40  
супер
Dron1994 
Частий відвідувач


З нами з: 07.07.14
Востаннє: 27.10.20
Повідомлень: 34

2020-07-22 08:45  
Майже ніколи до цього не дивився кваліфікації, але погодьтесь, в цьому році вони доволі таки цікаві і динамічні.
Ваш часовий пояс: GMT + 2 Години

Нова тема   Відповісти