Монахиня-воїн (Сезон 1) / Warrior Nun (Season 1) (2020) UHD 2160p 4K H.265 Ukr/Eng | Sub Eng

Нові коментарі

Нова тема   Відповісти
Автор Повідомлення
RoMeL 
Відео Гуртом - підтримка та поширення
Відео Гуртом - підтримка та поширення


З нами з: 09.07.08
Востаннє: 08.08.20
Повідомлень: 158

2020-07-18 18:38  
Монахиня-воїн (Сезон 1) / Warrior Nun (Season 1) (2020) UHD 2160p 4K H.265 Ukr/Eng | Sub Eng



Жанр: драма, фентезі
Країна: США



Кінокомпанія: Netflix, Fresco Film Services, Reality Distortion Field
Режисер: Саймон Баррі
Актори/ролі озвучують: Альба Баптиста, Тойя Тернер, Крістіна Тонтері-Янг, Лорена Андреа, Сільвія Де Фанті, Трістан Уллоа, Текла Рютен, Олівія Делькан, Жоакім ді Алмейда та інші

Сюжет:
Сюжет серіалу розповість про молоду дівчину, що прокинулася в морзі і була втягнута в давню боротьбу між силами добра і зла. Вона потрапляє в "Орден хрестоподібного меча" — таємне товариство монахинь-воїнів, що присягнулися захищати світ. Головній героїні належить поєднати життя дівчини-підлітка та обраній.


Тривалість: 1 серія: ~ 45 хв. (цілком серій: 10)
Перелік серій
01. Psalm 46:5
02. Proverbs 31:25
03. Ephesians 6:11
04. Ecclesiasticus 26:9-10
05. Matthew 7:13
06. Isaiah 30:20-21
07. Ephesians 4:22-24
08. Proverbs 14:1
09. 2 Corinthians 10:4
10. Revelation 2:10
Якість: 4K 2160p
Відео:
кодек: H.265
розмір кадру: 3840 х 1920
бітрейт: ~23,2 Мбіт/сек (залежить від серії)
бітова глибина: 10 біт
кольоровий простір: BT.709

Увага! Перед завантаженням переконайтесь, що ваш пристрій відтворення (та/або ПЗ) підтримує H.265 (HEVC)

Аудіо # 1:
мова: українська
переклад: багатоголосий закадровий | DniproFilm
кодек: 5.1
бітрейт: 384 кб/с

Аудіо # 2:
мова: англійська
переклад: оригінал
кодек: E- 5.1 + Atmos
бітрейт: 768 кб/с

Субтитри # 1-2:
мова: англійська ( Full,SDH)
тип: програмні (м'які)
формат: *.srt
Info

Код:
General
Unique ID                                : 145623082926530485351704149741698065855 (0x6D8DFC504BC3D536DC20575BDFD4A5BF)
Complete name                            : /Volumes/Download/Shows/Warrior.Nun.S01.2020..2160p.[Ukr.Eng]/Warrior.Nun.S01E01.2020..2160p.[Ukr.Eng].
Format                                   :
Format version                           : Version 4
File size                                : 8.66 GiB
Duration                                 : 50mn 57s
Overall bit rate                         : 24.3 Mbps
Movie name                               : Warrior.Nun.S01E01.2020..2160p.[Ukr.Eng]
Encoded date                             : UTC 2020-07-14 17:50:20
Writing application                      : v47.0.0 ('Black Flag') 64-bit
Writing library                          : libebml v1.3.10 + v1.5.2

Video
ID                                       : 1
Format                                   : HEVC
Format/Info                              : High Efficiency Video Coding
Format profile                           : Main [email protected]@High
Codec ID                                 : V_MPEGH/ISO/HEVC
Duration                                 : 50mn 57s
Bit rate                                 : 23.2 Mbps
Width                                    : 3 840 pixels
Height                                   : 1 920 pixels
Display aspect ratio                     : 2.000
Frame rate mode                          : Constant
Frame rate                               : 23.976 (24000/1001) fps
Color space                              : YUV
Chroma subsampling                       : 4:2:0
Bit depth                                : 10 bits
Bits/(Pixel*Frame)                       : 0.131
Stream size                              : 8.25 GiB (95%)
Writing library                          : x265 3.0_Au+4-dcbec33bfb0f:[Windows][GCC 8.2.1][64 bit] 10bit
Encoding settings                        : cpuid=1111039 / frame-threads=4 / numa-pools=24 / wpp / pmode / no-pme / no-psnr / no-ssim / log-level=2 / input-csp=1 / input-res=3840x1920 / interlace=0 / total-frames=73315 / level-idc=51 / high-tier=1 / uhd-bd=0 / ref=4 / no-allow-non-conformance / repeat-headers / annexb / aud / no-hrd / info / hash=0 / no-temporal-layers / no-open-gop / min-keyint=23 / keyint=250 / gop-lookahead=0 / bframes=10 / b-adapt=2 / b-pyramid / bframe-bias=0 / rc-lookahead=40 / lookahead-slices=0 / scenecut=40 / radl=0 / no-splice / no-intra-refresh / ctu=64 / min-cu-size=8 / no-rect / no-amp / max-tu-size=32 / tu-inter-depth=3 / tu-intra-depth=3 / limit-tu=4 / rdoq-level=2 / dynamic-rd=0.00 / no-ssim-rd / signhide / no-tskip / nr-intra=0 / nr-inter=0 / no-constrained-intra / strong-intra-smoothing / max-merge=4 / limit-refs=1 / limit-modes / me=3 / subme=5 / merange=57 / temporal-mvp / weightp / weightb / no-analyze-src-pics / deblock=-3:-3 / no-sao / no-sao-non-deblock / rd=4 / no-early-skip / no-rskip / no-fast-intra / no-tskip-fast / no-cu-lossless / b-intra / no-splitrd-skip / rdpenalty=0 / psy-rd=2.00 / psy-rdoq=0.00 / no-rd-refine / no-lossless / cbqpoffs=0 / crqpoffs=0 / rc=crf / crf=19.0 / qcomp=0.60 / qpstep=4 / stats-write=0 / stats-read=0 / vbv-maxrate=160000 / vbv-bufsize=160000 / vbv-init=0.9 / crf-max=0.0 / crf-min=0.0 / ipratio=1.30 / pbratio=1.20 / aq-mode=3 / aq-strength=0.80 / no-cutree / zone-count=0 / no-strict-cbr / qg-size=32 / no-rc-grain / qpmax=69 / qpmin=0 / no-const-vbv / sar=1 / overscan=0 / videoformat=5 / range=0 / colorprim=1 / transfer=1 / colormatrix=1 / chromaloc=0 / display-window=0 / max-cll=0,0 / min-luma=0 / max-luma=1023 / log2-max-poc-lsb=8 / vui-timing-info / vui-hrd-info / slices=1 / no-opt-qp-pps / no-opt-ref-list-length-pps / no-multi-pass-opt-rps / scenecut-bias=0.05 / no-opt-cu-delta-qp / no-aq-motion / no-hdr / no-hdr-opt / no-dhdr10-opt / no-idr-recovery-sei / analysis-reuse-level=5 / scale-factor=0 / refine-intra=0 / refine-inter=0 / refine-mv=0 / refine-ctu-distortion=0 / no-limit-sao / ctu-info=0 / no-lowpass-dct / refine-analysis-type=0 / copy-pic=1 / max-ausize-factor=1.0 / no-dynamic-refine / no-single-sei / no-hevc-aq / qp-adaptation-range=1.00
Default                                  : Yes
Forced                                   : No
Color range                              : Limited
Color primaries                          : BT.709
Transfer characteristics                 : BT.709
Matrix coefficients                      : BT.709

Audio #1
ID                                       : 2
Format                                   : AC-3
Format/Info                              : Audio Coding 3
Commercial name                          : Dolby Digital
Codec ID                                 : A_AC3
Duration                                 : 50mn 57s
Bit rate mode                            : Constant
Bit rate                                 : 384 Kbps
Channel(s)                               : 6 channels
Channel layout                           : L R C LFE Ls Rs
Sampling rate                            : 48.0 KHz
Frame rate                               : 31.250 fps (1536 SPF)
Compression mode                         : Lossy
Stream size                              : 140 MiB (2%)
Title                                    : DniproFilm
Language                                 : Ukrainian
Service kind                             : Complete Main
Default                                  : Yes
Forced                                   : No

Audio #2
ID                                       : 3
Format                                   : E-AC-3 JOC
Format/Info                              : Enhanced AC-3 with Joint Object Coding
Commercial name                          : Dolby Digital Plus with Dolby Atmos
Codec ID                                 : A_EAC3
Duration                                 : 50mn 57s
Bit rate mode                            : Constant
Bit rate                                 : 768 Kbps
Channel(s)                               : 6 channels
Channel layout                           : L R C LFE Ls Rs
Sampling rate                            : 48.0 KHz
Frame rate                               : 31.250 fps (1536 SPF)
Compression mode                         : Lossy
Stream size                              : 280 MiB (3%)
Title                                    : English
Language                                 : English
Service kind                             : Complete Main
Default                                  : No
Forced                                   : No
Complexity index                         : 16
Number of dynamic objects                : 15
Bed channel count                        : 1 channel
Bed channel configuration                : LFE

Text #1
ID                                       : 4
Format                                   : UTF-8
Codec ID                                 : S_TEXT/UTF8
Codec ID/Info                            : UTF-8 Plain Text
Duration                                 : 46mn 38s
Bit rate                                 : 50 bps
Count of elements                        : 585
Stream size                              : 17.3 KiB (0%)
Language                                 : English
Default                                  : No
Forced                                   : No

Text #2
ID                                       : 5
Format                                   : UTF-8
Codec ID                                 : S_TEXT/UTF8
Codec ID/Info                            : UTF-8 Plain Text
Duration                                 : 48mn 23s
Bit rate                                 : 60 bps
Count of elements                        : 762
Stream size                              : 21.4 KiB (0%)
Title                                    : SDH
Language                                 : English
Default                                  : No
Forced                                   : No

Скріншоти






Джерело: DniproFilm & &
Особиста оцінка: 10 - без зайвих вагань рекомендую всім!


Авторський реліз (завантажувати можна без реєстрації)
 Трекер:    Зареєстрований   

Завантажити / скачати серіал українською



відео для новачків



 Зареєстрований:   2020-07-22 23:04
 Розмір:   78.4 GB 
 Оцінка серіалу:   8.3/10 (Голосів: 7)
   
RoMeL 
Відео Гуртом - підтримка та поширення
Відео Гуртом - підтримка та поширення


З нами з: 09.07.08
Востаннє: 08.08.20
Повідомлень: 158

2020-07-22 23:07  
Додано 5-10 серії (фінал).

Deiv 
Поважний учасник


З нами з: 16.07.16
Востаннє: 08.08.20
Повідомлень: 177

2020-07-27 17:48  
Якже вона схожа на Алісію Вікандер . Наче рідна сестра . А сам серіал на тверду 7 - мало динаміки , та багато ляпів сценариста.
Ваш часовий пояс: GMT + 2 Години

Нова тема   Відповісти