Незнайомка (Сезон 1) / The Stranger (Season 1) (2020) AVC Ukr/Eng

Нові коментарі

Нова тема   Відповісти
Автор Повідомлення
Цікава ідея 
VIP


З нами з: 26.12.11
Востаннє: 07.08.20
Повідомлень: 554

2020-07-18 13:11  
AVC | 1080p

Незнайомка (Сезон 1) / The Stranger (Season 1) (2020) AVC Ukr/Eng


Незнайомка (Сезон 1) / The Stranger (Season 1) (2020) AVC Ukr/Eng


Жанр: драма, кримінал, трилер
Країна: Велика Британія



Кінокомпанія / телеканал: Red Production Company, Netflix
Режисери: Деніел О'Хара
Актори: Ханна Джон-Кеймен, Річард Армітедж, Шон Дулі, Шива Фіннеран, Джейк Дадмен, Міша Хендлі, Ентоні Хед, Пол Кей та інші.

Сюжет:
Адам Прайс - щасливий чоловік і батько, чиє життя летить під укіс, коли незнайомка розкриває йому секрет про його дружину Корінн. Шокуюче відкриття перетворює життя Адама в смертельно небезпечну інтригу, де будь-яка необережність може привести до загибелі.


Перекладено та озвучено ТО "Цікава Ідея" за підтримки fishMD


Тривалість: 1 серія: ~ 45 хв. (цілком серій: 8)
Перелік серій:

01. Episode #1.1
02. Episode #1.2
03. Episode #1.3
04. Episode #1.4
05. Episode #1.5
06. Episode #1.6
07. Episode #1.7
08. Episode #1.8
Якість: AVC
Відео:
кодек:
розмір кадру: 720 x 360
бітрейт: 1 100 кб/с

Аудіо # 1:
мова: українська | "Цікава Ідея"
переклад: професійний багатоголосий закадровий
кодек: 5.1
бітрейт: 448 кб/с

Аудіо # 2:
мова: англійська
переклад: оригінал
кодек: E- 5.1
бітрейт: 640 кб/с
Info
Код:
Format                      :
Format version              : Version 4
File size                   : 800 MiB
Duration                    : 51 min 44 s
Overall bit rate            : 2 162 kb/s
Movie name                  : Незнайомка / The Stranger - S01E01 (2020) AVC [Ukr.Eng] [Цікава Ідея]
Encoded date                : UTC 2020-07-10 16:10:47
Writing application         : v6.8.0 ('Theme for Great Cities') 32bit built on Mar  2 2014 21:27:07
Writing library             : libebml v1.3.0 + v1.4.1
Cover                       : Yes
Attachments                 : cover.jpg

Video
ID                          : 1
Format                      : AVC
Format/Info                 : Advanced Video Codec
Format profile              : [email protected]
Format settings             : CABAC / 5 Ref Frames
Format settings, CABAC      : Yes
Format settings, Reference  : 5 frames
Codec ID                    : V_MPEG4/ISO/AVC
Duration                    : 51 min 44 s
Bit rate                    : 1 031 kb/s
Nominal bit rate            : 1 100 kb/s
Width                       : 720 pixels
Height                      : 360 pixels
Display aspect ratio        : 2.000
Frame rate mode             : Constant
Frame rate                  : 25.000 FPS
Color space                 : YUV
Chroma subsampling          : 4:2:0
Bit depth                   : 8 bits
Scan type                   : Progressive
Bits/(Pixel*Frame)          : 0.159
Stream size                 : 382 MiB (48%)
Writing library             : core 148 r2795M aaa9aa8
Encoding settings           : cabac=1 / ref=5 / deblock=1:-1:-1 / analyse=0x3:0x113 / me=umh / subme=9 / psy=1 / psy_rd=1.00:0.15 / mixed_ref=1 / me_range=16 / chroma_me=1 / trellis=2 / 8x8dct=1 / cqm=0 / deadzone=21,11 / fast_pskip=1 / chroma_qp_offset=-3 / threads=24 / lookahead_threads=2 / sliced_threads=0 / nr=0 / decimate=1 / interlaced=0 / bluray_compat=0 / constrained_intra=0 / bframes=3 / b_pyramid=2 / b_adapt=2 / b_bias=0 / direct=3 / weightb=1 / open_gop=0 / weightp=2 / keyint=250 / keyint_min=25 / scenecut=40 / intra_refresh=0 / rc_lookahead=50 / rc=abr / mbtree=1 / bitrate=1100 / ratetol=1.0 / qcomp=0.60 / qpmin=0 / qpmax=69 / qpstep=4 / ip_ratio=1.40 / aq=1:1.00
Default                     : Yes
Forced                      : No

Audio #1
ID                          : 2
Format                      : AC-3
Format/Info                 : Audio Coding 3
Commercial name             : Dolby Digital
Codec ID                    : A_AC3
Duration                    : 51 min 44 s
Bit rate mode               : Constant
Bit rate                    : 448 kb/s
Channel(s)                  : 6 channels
Channel layout              : L R C LFE Ls Rs
Sampling rate               : 48.0 kHz
Frame rate                  : 31.250 FPS (1536 SPF)
Bit depth                   : 16 bits
Compression mode            : Lossy
Stream size                 : 166 MiB (21%)
Title                       : Цікава Ідея
Language                    : Ukrainian
Service kind                : Complete Main
Default                     : Yes
Forced                      : No

Audio #2
ID                          : 3
Format                      : E-AC-3
Format/Info                 : Enhanced AC-3
Commercial name             : Dolby Digital Plus
Codec ID                    : A_EAC3
Duration                    : 51 min 44 s
Bit rate mode               : Constant
Bit rate                    : 640 kb/s
Channel(s)                  : 6 channels
Channel layout              : L R C LFE Ls Rs
Sampling rate               : 48.0 kHz
Frame rate                  : 31.250 FPS (1536 SPF)
Compression mode            : Lossy
Stream size                 : 237 MiB (30%)
Title                       : English
Language                    : English
Service kind                : Complete Main
Default                     : No
Forced                      : No
Скріншоти



Перекладено та озвучено творчим об'єднанням:
Ролі озвучили: Семен Птаха, Юлія Малахова, Андрій Корзаченко, Ганна Квочкіна, Матвій Ніколаєв та Олексій Сафін


Авторський реліз (завантажувати можна без реєстрації)
 Трекер:    Зареєстрований   

Завантажити / скачати серіал українською



відео для новачків



 Зареєстрований:   2020-07-18 15:29
 Розмір:   5.55 GB 
 Оцінка серіалу:   9.9/10 (Голосів: 26)
   
st_78 
VIP


З нами з: 18.11.16
Востаннє: 06.08.20
Повідомлень: 1224

2020-07-18 13:14  
Серіал вартий уваги. Рекомендую до перегляду.
taksist 
VIP


З нами з: 10.12.12
Востаннє: 08.08.20
Повідомлень: 383

2020-07-19 08:45  
другорядні актори, на диво, не зіпсували фільм.
Ella1 
Свій


З нами з: 25.12.09
Востаннє: 01.08.20
Повідомлень: 92

2020-07-21 22:25  
Гарний фільм. Про те, як розкриття однієї таємниці тягне за собою розкриття іншої, а та - наступної))
bassoneb 
Свій


З нами з: 12.11.13
Востаннє: 07.08.20
Повідомлень: 105

2020-07-28 19:51  
Тримає в напрузі. Цікаво було дивитися!
anugama 
Частий відвідувач


З нами з: 15.02.10
Востаннє: 07.08.20
Повідомлень: 40

2020-07-29 19:41  
Еге ж цікавий. Хоча і тут приплели наркота.
tpolit 
VIP


З нами з: 10.01.15
Востаннє: 08.08.20
Повідомлень: 591

2020-08-04 00:09  
taksist написано:
другорядні актори, на диво, не зіпсували фільм


Це Торін Дубощит другорядний, чи що?

AnubiS 
VIP


З нами з: 10.05.09
Востаннє: 07.08.20
Повідомлень: 380

2020-08-04 22:29  
tpolit написано:
Це Торін Дубощит другорядний, чи що?

)))))

don pedro 
Попереджень: 1
Попереджень: 1 


З нами з: 29.06.11
Востаннє: 08.08.20
Повідомлень: 17397

2020-08-05 23:40  
Чудовий серіал, але у восьмій серії на початку в озвученні вкралась якась "орієнтировка".
Цікава ідея 
VIP


З нами з: 26.12.11
Востаннє: 07.08.20
Повідомлень: 554

2020-08-05 23:46  
don pedro написано:
Чудовий серіал, але у восьмій серії на початку в озвученні вкралась якась "орієнтировка".

Дякуємо за уважність.

jaroslove 
Свій


З нами з: 02.09.11
Востаннє: 07.08.20
Повідомлень: 125

2020-08-06 14:16  
Чудовий серіал, рекомендую фанатам жанру!
Ваш часовий пояс: GMT + 2 Години

Нова тема   Відповісти