Незнайомка (Сезон 1) / The Stranger (Season 1) (2020) 1080p Ukr/Eng

Нові коментарі

Нова тема   Відповісти
Автор Повідомлення
Цікава ідея 
VIP


З нами з: 26.12.11
Востаннє: 07.08.20
Повідомлень: 554

2020-07-18 13:07  
AVC | 1080p

Незнайомка (Сезон 1) / The Stranger (Season 1) (2020) 1080p Ukr/Eng


Незнайомка (Сезон 1) / The Stranger (Season 1) (2020) 1080p Ukr/Eng


Жанр: драма, кримінал, трилер
Країна: Велика Британія



Кінокомпанія / телеканал: Red Production Company, Netflix
Режисери: Деніел О'Хара
Актори: Ханна Джон-Кеймен, Річард Армітедж, Шон Дулі, Шива Фіннеран, Джейк Дадмен, Міша Хендлі, Ентоні Хед, Пол Кей та інші.

Сюжет:
Адам Прайс - щасливий чоловік і батько, чиє життя летить під укіс, коли незнайомка розкриває йому секрет про його дружину Корінн. Шокуюче відкриття перетворює життя Адама в смертельно небезпечну інтригу, де будь-яка необережність може привести до загибелі.


Перекладено та озвучено ТО "Цікава Ідея" за підтримки fishMD


Тривалість: 1 серія: ~ 45 хв. (цілком серій: 8)
Перелік серій:

01. Episode #1.1
02. Episode #1.2
03. Episode #1.3
04. Episode #1.4
05. Episode #1.5
06. Episode #1.6
07. Episode #1.7
08. Episode #1.8
Якість: 1080p
Відео:
кодек:
розмір кадру: 1920 x 960
бітрейт: ~ 9000 кб/с

Аудіо # 1:
мова: українська | "Цікава Ідея"
переклад: професійний багатоголосий закадровий
кодек: 5.1
бітрейт: 448 кб/с

Аудіо # 2:
мова: англійська
переклад: оригінал
кодек: E- 5.1
бітрейт: 640 кб/с
Info
Код:
Format                      :
Format version              : Version 4
File size                   : 3.88 GiB
Duration                    : 51 min 44 s
Overall bit rate            : 10.7 Mb/s
Movie name                  : Незнайомка / The Stranger - S01E01 (2020) 1080p [Ukr.Eng] [Цікава Ідея]
Encoded date                : UTC 2020-07-10 16:01:40
Writing application         : v6.8.0 ('Theme for Great Cities') 32bit built on Mar  2 2014 21:27:07
Writing library             : libebml v1.3.0 + v1.4.1
Cover                       : Yes
Attachments                 : cover.jpg

Video
ID                          : 1
Format                      : AVC
Format/Info                 : Advanced Video Codec
Format profile              : [email protected]
Format settings             : CABAC / 4 Ref Frames
Format settings, CABAC      : Yes
Format settings, Reference  : 4 frames
Codec ID                    : V_MPEG4/ISO/AVC
Duration                    : 51 min 44 s
Bit rate                    : 9 427 kb/s
Width                       : 1 920 pixels
Height                      : 960 pixels
Display aspect ratio        : 2.000
Frame rate mode             : Constant
Frame rate                  : 25.000 FPS
Color space                 : YUV
Chroma subsampling          : 4:2:0
Bit depth                   : 8 bits
Scan type                   : Progressive
Bits/(Pixel*Frame)          : 0.205
Stream size                 : 3.41 GiB (88%)
Writing library             : core 157 r2969 d4099dd
Encoding settings           : cabac=1 / ref=4 / deblock=1:-3:-3 / analyse=0x3:0x133 / me=umh / subme=10 / psy=1 / psy_rd=1.00:0.15 / mixed_ref=1 / me_range=48 / chroma_me=1 / trellis=2 / 8x8dct=1 / cqm=0 / deadzone=21,11 / fast_pskip=0 / chroma_qp_offset=-3 / threads=24 / lookahead_threads=4 / sliced_threads=0 / nr=0 / decimate=0 / interlaced=0 / bluray_compat=0 / constrained_intra=0 / bframes=8 / b_pyramid=2 / b_adapt=2 / b_bias=0 / direct=3 / weightb=1 / open_gop=0 / weightp=2 / keyint=250 / keyint_min=25 / scenecut=40 / intra_refresh=0 / rc=crf / mbtree=0 / crf=18.0 / qcomp=0.60 / qpmin=0 / qpmax=69 / qpstep=4 / ip_ratio=1.30 / pb_ratio=1.20 / aq=3:0.80
Language                    : English
Default                     : Yes
Forced                      : No

Audio #1
ID                          : 2
Format                      : AC-3
Format/Info                 : Audio Coding 3
Commercial name             : Dolby Digital
Codec ID                    : A_AC3
Duration                    : 51 min 44 s
Bit rate mode               : Constant
Bit rate                    : 448 kb/s
Channel(s)                  : 6 channels
Channel layout              : L R C LFE Ls Rs
Sampling rate               : 48.0 kHz
Frame rate                  : 31.250 FPS (1536 SPF)
Bit depth                   : 16 bits
Compression mode            : Lossy
Stream size                 : 166 MiB (4%)
Title                       : Цікава Ідея
Language                    : Ukrainian
Service kind                : Complete Main
Default                     : Yes
Forced                      : No

Audio #2
ID                          : 3
Format                      : E-AC-3
Format/Info                 : Enhanced AC-3
Commercial name             : Dolby Digital Plus
Codec ID                    : A_EAC3
Duration                    : 51 min 44 s
Bit rate mode               : Constant
Bit rate                    : 640 kb/s
Channel(s)                  : 6 channels
Channel layout              : L R C LFE Ls Rs
Sampling rate               : 48.0 kHz
Frame rate                  : 31.250 FPS (1536 SPF)
Compression mode            : Lossy
Stream size                 : 237 MiB (6%)
Title                       : English
Language                    : English
Service kind                : Complete Main
Default                     : No
Forced                      : No
Скріншоти



Перекладено та озвучено творчим об'єднанням:
Ролі озвучили: Семен Птаха, Юлія Малахова, Андрій Корзаченко, Ганна Квочкіна, Матвій Ніколаєв та Олексій Сафін


Авторський реліз (завантажувати можна без реєстрації)
 Трекер:    Зареєстрований   

Завантажити / скачати серіал українською



відео для новачків



 Зареєстрований:   2020-07-18 15:29
 Розмір:   26.69 GB 
 Оцінка серіалу:   10/10 (Голосів: 12)
   
antik_2008 
Релізер і модератор відео


З нами з: 20.10.08
Востаннє: 07.08.20
Повідомлень: 4010

2020-07-18 20:30  
Цікава ідея Дякую! Гарний серіал.
Ваш часовий пояс: GMT + 2 Години

Нова тема   Відповісти