Хранителі скарбів / Treasure Guards (2011) 720p 2xUkr/Eng

Нові коментарі

Нова тема   Відповісти
Автор Повідомлення
Anonymous 







2020-07-18 09:43  
Хранителі скарбів / Treasure Guards (2011) 720p 2xUkr/Eng

Хранителі скарбів / Treasure Guards (2011) 720p 2xUkr/Eng


Жанр: пригодницький
Країна: Німеччина



Кінокомпанія: Film Afrika Worldwide CC, Tandem Communications
Режисер: Айейн Б. МакДональд
Актори: Анна Фріл, Рауль Бова, Фолькер Бруч, Акрам Еллі, Хейн Де Фриз, Джордж Джейкос, Андре Джейкобс, Флорентіна Ламі, Патрік Лістер, Хосе Морейра Ваз

Сюжет:
Під час розкопок археолог Вікторія Картер знаходить стародавню карту, що вказує шлях до Печатки Соломона - древньому амулетові, отриманому царем від самого Бога! Не бажаючи ділитися відкриттям, Вікторія вирішує негайно відправитися на пошуки. Але чутки поширюються дуже швидко, тим більше, що на Друк давно йде полювання по всьому світу! Так само дізнаються про знахідку і у Ватикані, звідки, побоюючись мощі зберігаючі там артефакти, відправляють до Вікторії на допомогу відомого вченого Тедді Картера. Він повинен зробити все, щоб він не потрапила в погані руки!


Тривалість: 01:36:58
Якість: 720p
Відео:
кодек:
розмір кадру: 1280х720
бітрейт: 4 935 кб/с

Аудіо # 1:
мова: українська
переклад: багатоголосий закадровий
кодек: 2.0
бітрейт: 192 кб/с

Аудіо # 2:
мова: українська
переклад: багатоголосий закадровий
кодек: 2.0
бітрейт: 192 кб/с

Аудіо # 3:
мова: англійська
переклад: оригінал
кодек: 2.0
бітрейт: 192 кб/с
Info
General
Unique ID : 206135090371568754310593563734422350742 (0x9B142C9FD033F5968A48FE6AAC246B96)
Complete name : E:\Toloka\2020\Treasure Guards (2011) 720p.
Format :
Format version : Version 4
File size : 3.73 GiB
Duration : 1 h 36 min
Overall bit rate : 5 513 kb/s
Movie name : Treasure Guards / Das Vermächtnis des Salomo (2011) 720p
Encoded date : UTC 2020-07-18 06:38:56
Writing application : v6.1.0 ('Old Devil') built on Mar 4 2013 09:10:42
Writing library : libebml v1.3.0 + v1.4.0

Video
ID : 1
Format : AVC
Format/Info : Advanced Video Codec
Format profile : [email protected]
Format settings : CABAC / 5 Ref Frames
Format settings, CABAC : Yes
Format settings, Reference : 5 frames
Codec ID : V_MPEG4/ISO/AVC
Duration : 1 h 36 min
Bit rate : 4 935 kb/s
Width : 1 280 pixels
Height : 720 pixels
Display aspect ratio : 16:9
Frame rate mode : Constant
Frame rate : 23.976 (24000/1001) FPS
Color space : YUV
Chroma subsampling : 4:2:0
Bit depth : 8 bits
Scan type : Progressive
Bits/(Pixel*Frame) : 0.223
Stream size : 3.27 GiB (88%)
Writing library : core 120 r2164 da19765
Encoding settings : cabac=1 / ref=5 / deblock=1:0:0 / analyse=0x3:0x133 / me=umh / subme=8 / psy=1 / psy_rd=1.00:0.00 / mixed_ref=1 / me_range=16 / chroma_me=1 / trellis=1 / 8x8dct=1 / cqm=0 / deadzone=21,11 / fast_pskip=0 / chroma_qp_offset=-2 / threads=12 / sliced_threads=0 / nr=0 / decimate=1 / interlaced=0 / bluray_compat=0 / constrained_intra=0 / bframes=3 / b_pyramid=2 / b_adapt=1 / b_bias=0 / direct=1 / weightb=1 / open_gop=0 / weightp=2 / keyint=250 / keyint_min=23 / scenecut=40 / intra_refresh=0 / rc_lookahead=40 / rc=2pass / mbtree=1 / bitrate=4935 / ratetol=1.0 / qcomp=0.60 / qpmin=0 / qpmax=69 / qpstep=4 / cplxblur=20.0 / qblur=0.5 / ip_ratio=1.40 / aq=1:1.00
Language : German
Default : Yes
Forced : No
Duration_Source : General_Duration

Audio #1
ID : 2
Format : AC-3
Format/Info : Audio Coding 3
Commercial name : Dolby Digital
Codec ID : A_AC3
Duration : 1 h 36 min
Bit rate mode : Constant
Bit rate : 192 kb/s
Channel(s) : 2 channels
Channel layout : L R
Sampling rate : 48.0 kHz
Frame rate : 31.250 FPS (1536 SPF)
Compression mode : Lossy
Stream size : 133 MiB (3%)
Title : UKR (Новий)
Language : Ukrainian
Service kind : Complete Main
Default : Yes
Forced : Yes
Duration_Source : General_Duration

Audio #2
ID : 3
Format : AC-3
Format/Info : Audio Coding 3
Commercial name : Dolby Digital
Codec ID : A_AC3
Duration : 1 h 36 min
Bit rate mode : Constant
Bit rate : 192 kb/s
Channel(s) : 2 channels
Channel layout : L R
Sampling rate : 48.0 kHz
Frame rate : 31.250 FPS (1536 SPF)
Compression mode : Lossy
Stream size : 133 MiB (3%)
Title : UKR (2+2)
Language : Ukrainian
Service kind : Complete Main
Default : No
Forced : No
Duration_Source : General_Duration

Audio #3
ID : 4
Format : AC-3
Format/Info : Audio Coding 3
Commercial name : Dolby Digital
Codec ID : A_AC3
Duration : 1 h 36 min
Bit rate mode : Constant
Bit rate : 192 kb/s
Channel(s) : 2 channels
Channel layout : L R
Sampling rate : 48.0 kHz
Frame rate : 31.250 FPS (1536 SPF)
Compression mode : Lossy
Stream size : 133 MiB (3%)
Title : ENG
Language : English
Service kind : Complete Main
Default : No
Forced : No
Duration_Source : General_Duration
Скріншоти







За доріжку від Нового каналу дякуємо п.: РОМЕО, AngryBirdsUA
За запис звуку з каналу 2+2 дякуємо пану Bohdan237
Особиста подяка пану denixx за надану матеріальну допомогу на підтримку цього і майбутніх релізів.
Джерело:


 Трекер:    Зареєстрований   

Завантажити / скачати фільм українською



відео для новачків



 Зареєстрований:   2020-07-18 09:43
 Розмір:   3.73 GB 
 Оцінка фільму:   10/10 (Голосів: 3)
   
Інші релізи
clavaykraini 
Свій


З нами з: 16.05.14
Востаннє: 30.09.20
Повідомлень: 90

2020-07-18 16:02  
Цитата:
Хранителі скарбів

Не варто все підряд перекладати через Google. Відразу спадає на думку Охоронці, навіть PROMT надає правильну альтернативу Зберігачі.

Oleksa9 
VIP


З нами з: 17.05.12
Востаннє: 29.09.20
Повідомлень: 412

2020-07-18 20:47  
Який там гугл, усе на кацапський лад, а якщо українською, то одразу фашизм.....
Ваш часовий пояс: GMT + 2 Години

Нова тема   Відповісти