Без громадянства (Сезон 1) / Stateless (Season 1) (2020) 720p Eng | Sub Ukr/Eng

Нові коментарі

Нова тема   Відповісти
Останній раз роздавалося don pedro (2020-11-27)
Автор Повідомлення
Anonymous 







2020-07-17 17:17  
Без громадянства (Сезон 1) / Stateless (Season 1) (2020) 720p Eng | Sub Ukr/Eng

Без громадянства (Сезон 1) / Stateless (Season 1) (2020) 720p Eng | Sub Ukr/Eng


Жанр: драма
Країна: Австралія



Кінокомпанія: Screen Australia, Australian Broadcasting Corporation (ABC), The South Australian Film Corporation
Режисер: Емма Фрімен; Джослін Мурхаус
Актори: Івонн Страховскі, Джай Кортні, Кейт Бланшетт, Ашер Кедді, Домінік Вест

Сюжет:
Кілька незнайомців зустрічаються в одному місці - австралійському таборі для біженців, де ті очікують подальших розпоряджень місцевої влади.Потрапили вони туди з різних причин. Кем Семфорд влаштовується сюди на роботу охоронцем, щоб прогодувати сім'ю, але стикається з упередженим ставленням колег до біженців з країн третього світу. Амбітна чиновниця Клер Ковіц приїжджає в центр для ліквідації медіаскандалу. Афганець Амір втік до Австралії від жахів війни і намагається розшукати сім'ю, з якою був розлучений. І Софі Вернер - енергійна австралійська стюардеса, яку так замучила рідна сім'я, що вона спочатку втекла в секту особистісного зростання, а потім і зовсім опинилася в центрі для мігрантів, видавши себе за німкеню.
перелік серій
1. "The Circumstances in Which They Come"
2. "Incognita"
3. "The Right Thing"
4. "Run Sofie Run"
5. "Panis Angelicus"
6. "The Seventh Circle"
Тривалість: 1 серія: 55:00 (цілком серій: 6 з 6)
Якість:
Відео:
кодек:
розмір кадру: 1280 х 720
бітрейт: 2500 кб/с

Аудіо:
мова: англійська
переклад: оригінал
кодек: E- 5.1
бітрейт: 640 кб/с

Субтитри:
мова: українська
тип: програмні (м'які)
формат: *.srt

Субтитри:
мова: англійська
тип: програмні (м'які)
формат: *.srt
Скріншоти










МІ
Video
ID : 1
Format : AVC
Format/Info : Advanced Video Codec
Format profile : [email protected]
Format settings : CABAC / 3 Ref Frames
Format settings, CABAC : Yes
Format settings, Reference : 3 frames
Codec ID : V_MPEG4/ISO/AVC
Duration : 55 min 52 s
Bit rate mode : Variable
Bit rate : 2 490 kb/s
Maximum bit rate : 3 735 kb/s
Width : 1 280 pixels
Height : 720 pixels
Display aspect ratio : 16:9
Frame rate mode : Constant
Frame rate : 25.000 FPS
Color space : YUV
Chroma subsampling : 4:2:0
Bit depth : 8 bits
Scan type : Progressive
Bits/(Pixel*Frame) : 0.108
Stream size : 982 MiB (79%)
Writing library : core 148 r2717 0d2410d
Encoding settings : cabac=1 / ref=3 / deblock=1:0:0 / analyse=0x1:0x111 / me=umh / subme=10 / psy=1 / psy_rd=1.00:0.00 / mixed_ref=1 / me_range=24 / chroma_me=1 / trellis=2 / 8x8dct=0 / cqm=0 / deadzone=21,11 / fast_pskip=1 / chroma_qp_offset=-2 / threads=8 / lookahead_threads=1 / sliced_threads=0 / nr=0 / decimate=1 / interlaced=0 / bluray_compat=0 / stitchable=1 / constrained_intra=0 / bframes=2 / b_pyramid=0 / b_adapt=2 / b_bias=0 / direct=3 / weightb=1 / open_gop=0 / weightp=2 / keyint=250 / keyint_min=25 / scenecut=0 / intra_refresh=0 / rc_lookahead=50 / rc=2pass / mbtree=1 / bitrate=2490 / ratetol=1.0 / qcomp=0.50 / qpmin=6 / qpmax=51 / qpstep=4 / cplxblur=20.0 / qblur=0.5 / vbv_maxrate=3735 / vbv_bufsize=4980 / nal_hrd=vbr / filler=0 / ip_ratio=1.40 / aq=1:1.00
Language : English
Default : Yes
Forced : No

Audio
ID : 2
Format : E-AC-3
Format/Info : Enhanced AC-3
Commercial name : Dolby Digital Plus
Codec ID : A_EAC3
Duration : 55 min 52 s
Bit rate mode : Constant
Bit rate : 640 kb/s
Channel(s) : 6 channels
Channel layout : L R C LFE Ls Rs
Sampling rate : 48.0 kHz
Frame rate : 31.250 FPS (1536 SPF)
Compression mode : Lossy
Stream size : 256 MiB (21%)
Language : English
Service kind : Complete Main
Default : Yes
Forced : No

Text #1
ID : 3
Format : UTF-8
Codec ID : S_TEXT/UTF8
Codec ID/Info : UTF-8 Plain Text
Duration : 54 min 21 s
Bit rate : 90 b/s
Count of elements : 675
Stream size : 36.1 KiB (0%)
Language : Ukrainian
Default : Yes
Forced : No

Text #2
ID : 4
Format : UTF-8
Codec ID : S_TEXT/UTF8
Codec ID/Info : UTF-8 Plain Text
Duration : 54 min 1 s
Bit rate : 64 b/s
Count of elements : 787
Stream size : 25.7 KiB (0%)
Language : English
Default : No
Forced : No
Джерело:
Особиста оцінка: 0 - не дивився


 Трекер:    Зареєстрований   

Завантажити / скачати серіал українською



відео для новачків



 Зареєстрований:   2020-07-17 17:17
 Розмір:   6.98 GB 
 Оцінка серіалу:   8.5/10 (Голосів: 6)
   
Ваш часовий пояс: GMT + 2 Години

Нова тема   Відповісти