Внутрішній голос (Сезон 1, серії 1-7) / Little Voice (Season 1, episodes 1-7) (2020) 720p Eng | sub Ukr/Eng

Нові коментарі

Нова тема   Відповісти
Автор Повідомлення
Anonymous 







2020-07-17 14:46  
Внутрішній голос (Сезон 1, серії 1-7) / Little Voice (Season 1, episodes 1-7) (2020) 720p Eng | sub Ukr/Eng



Жанр: драма, музичний, комедія, романтичний
Країна: США



Кінокомпанія: Bad Robot, Warner Bros. Television, Apple TV+
Режисер: Сара Барелліс / Sara Bareilles, Джессі Нельсон / Jessie Nelson
Актори: Бріттані О'Ґрейді / Brittany O'Grady, Колтон Раян / Colton Ryan, Шон Тіл / Sean Teale, Шаліні Батіна / Shalini Bathina, Сакіна Джеффрі / Sakina Jaffrey, Філіп Джонсон Річардсон / Phillip Johnson Richardson, Надя Мохеббан / Nadia Mohebban та інші

Сюжет:
Романтична комедійна драма - своєрідне зізнання в любові строкатому музичному світові Нью-Йорка, історія про пошуки автентичності та власного творчого «я». Головна героїня історії - талановита виконавиця Бесс Кінґ, яка намагається втілити в життя свої заповітні мрії.
Офіційний трейлер:

Віковий телевізійний рейтинг у США: TV-MA - не рекомендується дітям до 17 років


Тривалість: 1 серія: 25÷34 хв. (цілком серій: 7 з 9)
Перелік серій:
S01E01 Не знаю / I Don't Know
S01E02 Я виживу? / I Will Survive
S01E03 Надія / Dear Hope
S01E04 Любов ранить / Love Hurts
S01E05 КВІК - КВІК - СЛОУ / Quick, Quick Slow
S01E06 Розкажи їй / Tell Her
S01E07 Примарний вогник / Ghost Light
S01E08 / Sea Change
S01E09
Якість: 720p
Відео:
кодек:
розмір кадру: 1356х678
бітрейт: 2791÷2842 кб/с

Аудіо:
мова: англійська
переклад: оригінал
кодек: E- JOC 5.1
бітрейт: 768 кб/с

Субтитри # 1:
мова: українська
тип: програмні (м'які)
формат: *.srt
переклад: офіційний, Анастасія Жищинська

Субтитри # 2-3:
мова: англійська (SDH, повні)
тип: програмні (м'які)
формат: *.srt
Info
Код:
Complete name               : S01E03.Little Voice (2020) [Eng sub.Ukr,Eng] 720p [Hurtom].
Format                      :
Format version              : Version 4
File size                   : 646 MiB
Duration                    : 25 min 8 s
Overall bit rate            : 3 589 kb/s
Movie name                  : S01E03 [Надія / Dear Hope] Внутрішній голос / Little Voice (2020) 720p [Hurtom]
Encoded date                : UTC 2020-07-17 12:57:07
Writing application         : v48.0.0 ('Fortress Around Your Heart') 64-bit
Writing library             : libebml v1.4.0 + v1.6.0
Cover                       : Yes
Attachments                 : cover.jpg

Video
ID                          : 1
Format                      : AVC
Format/Info                 : Advanced Video Codec
Format profile              : [email protected]
Format settings             : CABAC / 5 Ref Frames
Format settings, CABAC      : Yes
Format settings, Reference  : 5 frames
Codec ID                    : V_MPEG4/ISO/AVC
Duration                    : 25 min 8 s
Bit rate                    : 2 818 kb/s
Width                       : 1 356 pixels
Height                      : 678 pixels
Display aspect ratio        : 2.000
Frame rate mode             : Constant
Frame rate                  : 23.976 (24000/1001) FPS
Color space                 : YUV
Chroma subsampling          : 4:2:0
Bit depth                   : 8 bits
Scan type                   : Progressive
Bits/(Pixel*Frame)          : 0.128
Stream size                 : 507 MiB (79%)
Title                       : S01E03 Внутрішній голос / Little Voice (2020) 720p [TRUMP]
Language                    : English
Default                     : Yes
Forced                      : No
Color range                 : Limited
Color primaries             : BT.709
Transfer characteristics    : BT.709
Matrix coefficients         : BT.709

Audio
ID                          : 2
Format                      : E-AC-3 JOC
Format/Info                 : Enhanced AC-3 with Joint Object Coding
Commercial name             : Dolby Digital Plus with Dolby Atmos
Codec ID                    : A_EAC3
Duration                    : 25 min 8 s
Bit rate mode               : Constant
Bit rate                    : 768 kb/s
Channel(s)                  : 6 channels
Channel layout              : L R C LFE Ls Rs
Sampling rate               : 48.0 kHz
Frame rate                  : 31.250 FPS (1536 SPF)
Compression mode            : Lossy
Stream size                 : 138 MiB (21%)
Language                    : English
Service kind                : Complete Main
Default                     : Yes
Forced                      : No
Complexity index            : 16
Number of dynamic objects   : 15
Bed channel count           : 1 channel
Bed channel configuration   : LFE

Text #1
ID                          : 3
Format                      : UTF-8
Codec ID                    : S_TEXT/UTF8
Codec ID/Info               : UTF-8 Plain Text
Duration                    : 24 min 49 s
Bit rate                    : 100 b/s
Count of elements           : 374
Stream size                 : 18.3 KiB (0%)
Title                       : Ukr Full [Apple TV+]
Language                    : Ukrainian
Default                     : Yes
Forced                      : Yes

Text #2
ID                          : 4
Format                      : UTF-8
Codec ID                    : S_TEXT/UTF8
Codec ID/Info               : UTF-8 Plain Text
Duration                    : 24 min 57 s
Bit rate                    : 75 b/s
Count of elements           : 416
Stream size                 : 13.9 KiB (0%)
Title                       : Eng SDH
Language                    : English
Default                     : No
Forced                      : No

Text #3
ID                          : 5
Format                      : UTF-8
Codec ID                    : S_TEXT/UTF8
Codec ID/Info               : UTF-8 Plain Text
Duration                    : 24 min 23 s
Bit rate                    : 65 b/s
Count of elements           : 361
Stream size                 : 11.8 KiB (0%)
Title                       : Eng Full
Language                    : English
Default                     : No
Forced                      : No
Скріншоти:











Джерело: &


Бронзовий реліз (на рейтинг впливає 75% завантаженого)
 Трекер:    Зареєстрований   

Завантажити / скачати серіал українською



відео для новачків



 Зареєстрований:   2020-08-07 09:00
 Розмір:   5.37 GB 
 Оцінка серіалу:   10/10 (Голосів: 5)
 ЗАЛИШАЙТЕСЬ ЯКОМОГА ДОВШЕ НА РОЗДАЧІ! ЗАВАНТАЖИВ САМ - ДАЙ ЗАВАНТАЖИТИ ІНШИМ!
   
Anonymous 







2020-07-24 09:13  
+ 5а серія
Anonymous 







2020-07-31 16:59  
+6а серія
Anonymous 







2020-08-07 09:01  
+7а серія
Ваш часовий пояс: GMT + 2 Години

Нова тема   Відповісти