Українська символіка. Прапор. Гімн. Герб (2016) 1080p

Нові коментарі

Нова тема   Відповісти
Автор Повідомлення
sergiyko.5 
VIP


З нами з: 25.02.16
Востаннє: 23.10.20
Повідомлень: 3611

2020-07-17 13:27  
Українська символіка. Прапор. Гімн. Герб (2016) 1080p

Українська символіка. Прапор. Гімн. Герб (2016) 1080p

Жанр: документальний
Країна: Україна
Телеканал / кіностудія: Інсайтмедіа за підтримки Держкіно України
Режисер: Сергій Сотніченко, Євгеній Коваленко

Сюжет:
Прапор
Фільм відноситься до документальної трилогії, що присвячена історії української символіки. Дає розуміння того, як і на яких засадах будувалась Українська держава. Офіційна історія Незалежної України налічує трохи більше ніж чверть століття, в той час як прапору – понад вісімсот років. Фільм розкаже історію виникнення жовто-блакитного прапора, розкриє найбільш суперечливі та маловідомі факти, а також дасть відповідь на питання, довкола яких і досі не вщухають суперечки у суспільстві.

Гімн
Другий фільм документальної трилогії розповідає історію народження гімну України, одного із символів української державності. Незважаючи на те, що незалежній Україні трохи більше 25-ти років, її гімн існує вже півтори сотні. Він дивним чином повторює долю українського народу: короткі миті визнання, часи забуття і спроби знищення. Фільм розповість про маловідомі факти про національний гімн, кількості його інтерпретації, виборі музичного супроводу і символізм соборності.

Герб

Третій фільм документальної трилогії описує історію створення та затвердження малого Державного герба України, найдревнішого з символів української державності, якому вже понад тисячу років. Фільм розкаже про найбільш суперечливі та маловідомі факти, дасть відповідь на питання, чому тризуб не є гербом з точки зору геральдики, та яка була йому альтернатива.


Тривалість: 00:50:21+00:51:54+00:51:42
Якість:

Відео: кодек: розмір кадру: 1920 х 1080 бітрейт: 5900 кб/с
Аудіо: мова: українська переклад: оригінал кодек: 2.0 бітрейт: 128 кб/с

Скріншоти:
Про файл:

General
Unique ID : 113569879644914115306479898320378060870 (0x5570C361001DAFE34D581BD81BD8E046)
Complete name : D:\Documents\Torrents\FILMS\Українська символіка 2016 1080p\Українська символіка.Герб.2016.1080p..
Format :
Format version : Version 4
File size : 2.19 GiB
Duration : 51 min 54 s
Overall bit rate mode : Variable
Overall bit rate : 6 027 kb/s
Movie name : rip by sergiyko
Encoded date : UTC 2020-07-17 10:22:54
Writing application : v47.0.0 ('Black Flag') 64-bit
Writing library : libebml v1.3.10 + v1.5.2

Video
ID : 1
Format : AVC
Format/Info : Advanced Video Codec
Format profile : [email protected]
Format settings : CABAC / 2 Ref Frames
Format settings, CABAC : Yes
Format settings, Reference : 2 frames
Codec ID : V_MPEG4/ISO/AVC
Duration : 51 min 54 s
Bit rate mode : Variable
Bit rate : 5 900 kb/s
Maximum bit rate : 8 000 kb/s
Width : 1 920 pixels
Height : 1 080 pixels
Display aspect ratio : 16:9
Frame rate mode : Constant
Frame rate : 25.000 FPS
Standard : PAL
Color space : YUV
Chroma subsampling : 4:2:0
Bit depth : 8 bits
Scan type : Progressive
Bits/(Pixel*Frame) : 0.114
Stream size : 2.14 GiB (98%)
Language : Ukrainian
Default : Yes
Forced : No
Color range : Limited
Color primaries : BT.709
Transfer characteristics : BT.709
Matrix coefficients : BT.709

Audio
ID : 2
Format : LC
Format/Info : Advanced Audio Codec Low Complexity
Codec ID : A_AAC-2
Duration : 51 min 54 s
Bit rate : 125 kb/s
Channel(s) : 2 channels
Channel layout : L R
Sampling rate : 48.0 kHz
Frame rate : 46.875 FPS (1024 SPF)
Compression mode : Lossy
Delay relative to video : -40 ms
Stream size : 46.6 MiB (2%)
Language : Ukrainian
Default : Yes
Forced : No


Золотий реліз (завантажене не впливає на рейтинг)
 Трекер:    Зареєстрований   

Завантажити / скачати фільм українською



відео для новачків



 Зареєстрований:   2020-07-17 13:27
 Розмір:   6.47 GB 
 Оцінка фільму:   10/10 (Голосів: 11)
   
Ваш часовий пояс: GMT + 2 Години

Нова тема   Відповісти