Покора / Compliance (2012) AVC Ukr/Eng | Sub Eng

Нові коментарі

Нова тема   Відповісти
Автор Повідомлення
staf777 
Відео Гуртом - підтримка та поширення
Відео Гуртом - підтримка та поширення


З нами з: 16.11.16
Востаннє: 05.08.20
Повідомлень: 3928

2020-07-16 14:28  
Покора / Compliance (2012) AVC Ukr/Eng | Sub Eng

Покора / Compliance (2012) AVC Ukr/Eng | Sub Eng


Жанр: Трилер, Драма, Кримінал
Країна: США



Кінокомпанія: Magnolia Pictures
Режисер: Крейґ Зобель
Актори: Енн Дауд, Дріма Уокер, Пет Хілі, Білл Кемп, Філіп Еттінджер, Джеймс МакКеффрі, Метт Сервітто, Ешлі Еткінсон, Ральф Йован Родрігез, Стівен Пейн, Амелія Фоулер, Реймонд МакЕнеллі, Ребекка Хендерсон, Джеффрі Гроувер, Майкл Ебботт мл. та інші.

Сюжет:
Менеджеру фаст-фуду телефонує невідомий та представляється офіцером поліції. Він звинувачує молоду офіціантку Бекі у крадіжці грошей з сумочки клієнтки. Менеджер та його підлеглі, керуючись рекомендаціями по телефону, радо допомагають представнику закону викрити злодія. Роздягнувши дівчину і піддавши її різного роду моральним знущанням, майже ніхто з них не засумнівався у авторитеті людині що віддавала накази по телефону. А може ця людина стала для них шансом дати волю свої темній сутності? Фільм заснований на реальних подіях. В основу покладено експеримент Мілґрема.


Тривалість: 01:29:46
Якість: (AVC) (Blu-Ray Remux 1080р))
Відео:
кодек:
розмір кадру: 1024х424
бітрейт: 2430 кб/с

Аудіо # 1:
мова: українська
переклад: професійний багатоголосий закадровий (Товариство "Три Крапки")
кодек: 2.0
бітрейт: 163 кб/с

Аудіо # 2:
мова: англійська
переклад: оригінал
кодек: 5.1
бітрейт: 448 кб/с

Субтитри:
мова: англійська
тип: програмні (м'які)
формат: *.srt
MI
General
Unique ID : 107831907809222188162342510099035001093 (0x511FAB867F5A04A240D3F6BFC1BF1105)
Complete name : Z:\Фільми AVC\Трилер\Compliance (2012) AVC [UKR_ENG] [Hurtom].
Format :
Format version : Version 4
File size : 1.91 GiB
Duration : 1 h 29 min
Overall bit rate : 3 043 kb/s
Movie name : Покора / Compliance (2012) AVC [UKR_ENG] [Hurtom]
Encoded date : UTC 2020-07-16 11:33:09
Writing application : v46.0.0 ('No Deeper Escape') 64-bit
Writing library : libebml v1.3.10 + v1.5.2
Cover : Yes
Attachments : cover.jpg

Video
ID : 1
Format : AVC
Format/Info : Advanced Video Codec
Format profile : [email protected]
Format settings : CABAC / 8 Ref Frames
Format settings, CABAC : Yes
Format settings, Reference : 8 frames
Codec ID : V_MPEG4/ISO/AVC
Duration : 1 h 29 min
Bit rate : 2 430 kb/s
Width : 1 024 pixels
Height : 424 pixels
Display aspect ratio : 2.40:1
Frame rate mode : Constant
Frame rate : 23.976 FPS
Color space : YUV
Chroma subsampling : 4:2:0
Bit depth : 8 bits
Scan type : Progressive
Bits/(Pixel*Frame) : 0.233
Stream size : 1.52 GiB (80%)
Writing library : core 115 r1937 aa21558
Encoding settings : cabac=1 / ref=8 / deblock=1:-3:-3 / analyse=0x3:0x113 / me=umh / subme=8 / psy=1 / psy_rd=1.00:0.10 / mixed_ref=0 / me_range=32 / chroma_me=1 / trellis=2 / 8x8dct=1 / cqm=0 / deadzone=21,11 / fast_pskip=1 / chroma_qp_offset=-3 / threads=6 / sliced_threads=0 / nr=0 / decimate=1 / interlaced=0 / bluray_compat=0 / constrained_intra=0 / bframes=8 / b_pyramid=2 / b_adapt=2 / b_bias=0 / direct=3 / weightb=1 / open_gop=0 / weightp=0 / keyint=240 / keyint_min=23 / scenecut=40 / intra_refresh=0 / rc_lookahead=30 / rc=2pass / mbtree=1 / bitrate=2430 / ratetol=1.0 / qcomp=0.60 / qpmin=15 / qpmax=47 / qpstep=3 / cplxblur=20.0 / qblur=0.5 / ip_ratio=1.40 / aq=1:1.10
Language : English
Default : Yes
Forced : No

Audio #1
ID : 2
Format : LC
Format/Info : Advanced Audio Codec Low Complexity
Codec ID : A_AAC-2
Duration : 1 h 29 min
Bit rate : 163 kb/s
Channel(s) : 2 channels
Channel layout : L R
Sampling rate : 48.0 kHz
Frame rate : 46.875 FPS (1024 SPF)
Compression mode : Lossy
Stream size : 104 MiB (5%)
Title : (Товариство "Три Крапки")
Language : Ukrainian
Default : Yes
Forced : Yes

Audio #2
ID : 3
Format : AC-3
Format/Info : Audio Coding 3
Commercial name : Dolby Digital
Codec ID : A_AC3
Duration : 1 h 29 min
Bit rate mode : Constant
Bit rate : 448 kb/s
Channel(s) : 6 channels
Channel layout : L R C LFE Ls Rs
Sampling rate : 48.0 kHz
Frame rate : 31.250 FPS (1536 SPF)
Compression mode : Lossy
Stream size : 288 MiB (15%)
Title : 5.1
Language : English
Service kind : Complete Main
Default : No
Forced : No

Text #1
ID : 4
Format : UTF-8
Codec ID : S_TEXT/UTF8
Codec ID/Info : UTF-8 Plain Text
Duration : 1 h 25 min
Bit rate : 94 b/s
Count of elements : 1609
Stream size : 59.3 KiB (0%)
Title : (full)
Language : English
Default : No
Forced : No

Text #2
ID : 5
Format : UTF-8
Codec ID : S_TEXT/UTF8
Codec ID/Info : UTF-8 Plain Text
Duration : 1 h 26 min
Bit rate : 97 b/s
Count of elements : 1675
Stream size : 61.6 KiB (0%)
Title : (SDH)
Language : English
Default : No
Forced : No

Menu
00:00:00.000 : en:Chapter 01
00:08:29.175 : en:Chapter 02
00:15:38.854 : en:Chapter 03
00:25:01.041 : en:Chapter 04
00:32:46.714 : en:Chapter 05
00:38:00.486 : en:Chapter 06
00:45:59.047 : en:Chapter 07
00:52:18.718 : en:Chapter 08
00:59:45.999 : en:Chapter 09
01:07:57.031 : en:Chapter 10
01:15:14.301 : en:Chapter 11
01:26:35.565 : en:Chapter 12
Скріншоти
Джерело:


Авторський реліз (завантажувати можна без реєстрації)
 Трекер:    Зареєстрований   

Завантажити / скачати фільм українською



відео для новачків



 Зареєстрований:   2020-07-16 14:43
 Розмір:   1.91 GB 
 Оцінка фільму:   9.6/10 (Голосів: 9)
   
Інші релізи
   Покора / Compliance (2012) 1080p Ukr/Eng | Sub Eng Timm  3 / 0   9.46 GB   2020-07-15 23:45 
   Покора / Compliance (2012) 720p Ukr/Eng | Sub Eng demotyvator  4 / 0   4.57 GB   2015-07-10 02:08 
   Покора / Compliance (2012) Ukr/Eng | Sub Eng piznajko  5 / 0   1.32 GB   2015-07-08 02:02 
chanis 
Свій


З нами з: 21.12.15
Востаннє: 02.08.20
Повідомлень: 71

2020-07-23 00:19  
Думай і будь відповідальним за власні вчинки. Фільм дещо шокуючий.
ihor72 
Свій


З нами з: 17.05.10
Востаннє: 04.08.20
Повідомлень: 117

2020-07-23 14:26  
Сподобався. Хоча кінцівку могли б трохи і "розжувати": кому, скільки і чи взагалі поніс хтось покарання.
Ваш часовий пояс: GMT + 2 Години

Нова тема   Відповісти