Дивні Дива (Сезон 3) / Stranger Things (Season 3) (2019) UHD 2160p 4K HDR H.265 Ukr/Eng | Sub Ukr/Eng

Нові коментарі

Нова тема   Відповісти
Автор Повідомлення
RoMeL 
Відео Гуртом - підтримка та поширення
Відео Гуртом - підтримка та поширення


З нами з: 09.07.08
Востаннє: 05.12.20
Повідомлень: 246

2020-07-15 22:59  
Дивні Дива (Сезон 3) / Stranger Things (Season 3) (2019) UHD 2160p 4K HDR H.265 Ukr/Eng | Sub Ukr/Eng



Жанр: психологічний, трилер, жахи, фантастика, пригодницький
Країна: США



Кінокомпанія: Netflix
Режисери: Метт Даффер, Росс Даффер, Шон Леві
Актори: Вайнона Райдер, Девід Гарбор, Фін Вулфгард, Майллі Боббі Браун, Ґейтен Матараццо, Калеб Маклафлін, Наталія Дайер, Чарлі Гітон, Кара Буоно, Меттью Модайн, Шон Астін та Пол Райзер.

Сюжет:
Знову Дивні дива почали відбуватися в містечку Гокінз. Що ж нам розповість ця історія про одне літо, що здатне змінити все?


Перекладено та озвучено студією Т.С. Cтруґачка

Тривалість: 1 серія: 45:00 (цілком серій: 8)
Перелік серій
1.«Глава перша: Сьюзі, як чути?»
«"Chapter One: Suzie, Do You Copy?"»

2.«Глава друга: Нероби з супермакету»
«Chapter Two: The Mall Rats»

3.«Глава третя: Справа про зниклу рятувальницю»
«Chapter Three: The Case of the Missing Lifeguard»

4.«Глава четверта: Випробування сауною»
«Chapter Four: The Sauna Test»

5.«Глава п'ята: Бранці»
«Chapter Five: The Flayed»

6.«Глава шоста: "E Pluribus Unum/З багатьох — єдине"»
«Chapter Six: "E Pluribus Unum"»

7.«Глава сьома: Укус»
«Chapter Seven: The Bite»

8.«Глава восьма: Битва за Старкорт»
«Chapter Eight: The Battle of Starcourt»
Якість: 4K 2160p HDR H.265
Відео:
кодек: H.265 (HEVC)
розмір кадру: 3840 х 2160
бітрейт: ~15,6 Мбіт/сек (залежить від серії)
бітова глибина: 10 біт
кольоровий простір: BT.2020 (HDR)

Увага! Перед завантаженням переконайтесь, що ваш пристрій відтворення (та/або ПЗ) підтримує H.265 (HEVC)

Аудіо # 1:
мова: українська
переклад: багатоголосий закадровий | творча спільнота Cтруґачка
кодек: 5.1
бітрейт: 640 кб/с

Аудіо # 2:
мова: англійська
переклад: оригінал
кодек: E- 5.1 + Atmos
бітрейт: 640 кб/с

Субтитри # 1:
мова: українська
тип: програмні (м'які)
формат: *.

Субтитри # 2-3:
мова: англійська (Full, SDH)
тип: програмні (м'які)
формат: *.srt
Info

Код:
General
Unique ID                                : 251410279312240686412048158258107278945 (0xBD23DBC8526B0843CAFD3F0BA12C6661)
Complete name                            : /Volumes/Download/Shows/Stranger.Things.S03.2019..2160p.HDR.[Ukr.Eng]/Stranger.Things.S03E01.2019..2160p.HDR.[Ukr.Eng].
Format                                   :
Format version                           : Version 4
File size                                : 5.82 GiB
Duration                                 : 50mn 33s
Overall bit rate                         : 16.5 Mbps
Movie name                               : Stranger.Things.S03E01.2019..2160p.HDR.[Ukr.Eng]
Encoded date                             : UTC 2020-07-11 18:27:39
Writing application                      : v47.0.0 ('Black Flag') 64-bit
Writing library                          : libebml v1.3.10 + v1.5.2

Video
ID                                       : 1
Format                                   : HEVC
Format/Info                              : High Efficiency Video Coding
Format profile                           : Main [email protected]@Main
HDR format                               : SMPTE ST 2086, HDR10 compatible
Codec ID                                 : V_MPEGH/ISO/HEVC
Duration                                 : 49mn 15s
Bit rate                                 : 15.6 Mbps
Width                                    : 3 840 pixels
Height                                   : 2 160 pixels
Display aspect ratio                     : 16:9
Frame rate mode                          : Constant
Frame rate                               : 23.976 (24000/1001) fps
Color space                              : YUV
Chroma subsampling                       : 4:2:0 (Type 2)
Bit depth                                : 10 bits
Bits/(Pixel*Frame)                       : 0.078
Stream size                              : 5.37 GiB (92%)
Default                                  : Yes
Forced                                   : No
Color range                              : Limited
Color primaries                          : BT.2020
Transfer characteristics                 : PQ
Matrix coefficients                      : BT.2020 non-constant
Mastering display color primaries        : Display P3
Mastering display luminance              : min: 0.0050 cd/m2, max: 4000 cd/m2
Maximum Content Light Level              : 756 cd/m2
Maximum Frame-Average Light Level        : 153 cd/m2

Audio #1
ID                                       : 2
Format                                   : AC-3
Format/Info                              : Audio Coding 3
Commercial name                          : Dolby Digital
Codec ID                                 : A_AC3
Duration                                 : 50mn 33s
Bit rate mode                            : Constant
Bit rate                                 : 640 Kbps
Channel(s)                               : 6 channels
Channel layout                           : L R C LFE Ls Rs
Sampling rate                            : 48.0 KHz
Frame rate                               : 31.250 fps (1536 SPF)
Compression mode                         : Lossy
Stream size                              : 231 MiB (4%)
Language                                 : Ukrainian
Service kind                             : Complete Main
Default                                  : Yes
Forced                                   : Yes

Audio #2
ID                                       : 3
Format                                   : E-AC-3
Format/Info                              : Enhanced AC-3
Commercial name                          : Dolby Digital Plus
Codec ID                                 : A_EAC3
Duration                                 : 50mn 33s
Bit rate mode                            : Constant
Bit rate                                 : 640 Kbps
Channel(s)                               : 6 channels
Channel layout                           : L R C LFE Ls Rs
Sampling rate                            : 48.0 KHz
Frame rate                               : 31.250 fps (1536 SPF)
Compression mode                         : Lossy
Stream size                              : 231 MiB (4%)
Language                                 : English
Service kind                             : Complete Main
Default                                  : No
Forced                                   : No

Text #1
ID                                       : 4
Format                                   :
Codec ID                                 : S_TEXT/
Codec ID/Info                            : Advanced Sub Station Alpha
Duration                                 : 48mn 53s
Bit rate                                 : 142 bps
Count of elements                        : 860
Compression mode                         : Lossless
Stream size                              : 51.1 KiB (0%)
Language                                 : Ukrainian
Default                                  : No
Forced                                   : No

Text #2
ID                                       : 5
Format                                   : UTF-8
Codec ID                                 : S_TEXT/UTF8
Codec ID/Info                            : UTF-8 Plain Text
Duration                                 : 42mn 52s
Bit rate                                 : 54 bps
Count of elements                        : 611
Stream size                              : 17.1 KiB (0%)
Language                                 : English
Default                                  : No
Forced                                   : No

Text #3
ID                                       : 6
Format                                   : UTF-8
Codec ID                                 : S_TEXT/UTF8
Codec ID/Info                            : UTF-8 Plain Text
Duration                                 : 47mn 10s
Bit rate                                 : 61 bps
Count of elements                        : 760
Stream size                              : 21.2 KiB (0%)
Title                                    : SDH
Language                                 : English
Default                                  : No
Forced                                   : No
Скріншоти




Джерело: Т.С. Cтруґачка & &
Особиста оцінка: 10 - без зайвих вагань рекомендую всім!



Авторський реліз (завантажувати можна без реєстрації)
 Трекер:    Зареєстрований   

Завантажити / скачати серіал українською



відео для новачків



 Зареєстрований:   2020-07-15 22:59
 Розмір:   51.78 GB 
 Оцінка серіалу:   10/10 (Голосів: 5)
   
Ваш часовий пояс: GMT + 2 Години

Нова тема   Відповісти