Неортодоксальна (Сезон 1) / Unorthodox (Season 1) (2020) AVC Ukr/Eng

Нові коментарі

Нова тема   Відповісти
Автор Повідомлення
Цікава ідея 
VIP


З нами з: 26.12.11
Востаннє: 24.09.20
Повідомлень: 666

2020-07-15 21:22  
AVC | 1080p

Неортодоксальна (Сезон 1) / Unorthodox (Season 1) (2020) AVC Ukr/Eng


Неортодоксальна (Сезон 1) / Unorthodox (Season 1) (2020) AVC Ukr/Eng


Жанр: драма
Країна: Німеччина



Кінокомпанія / телеканал: Real Film Berlin, Studio Airlift
Режисери: Марія Шрадер
Актори: Шира Гаас, Аміт Рахав, Джефф Вільбуш, Алекс Рід, Роніт Ашері, Делія Майер, Діна Дорон, Давид Мандельбавум, Гера Сандлер та інші.

Сюжет:
19-річна єврейка на ім'я Есті тікає від шлюбу та ультраортодоксальної громади в Вільямсбурзі. Вона переїжджає до Берліна, де живе її мати, і намагається вести світське життя, відвідувати заняття в консерваторії. Її чоловік, дізнавшись, що Есті вагітна, за наказом рабина відправляється до Берліна зі своїм двоюрідним братом, щоб спробувати знайти її.


Перекладено та озвучено ТО "Цікава Ідея" за підтримки fishMD


Тривалість: 1 серія: ~ 52 хв. (цілком серій: 4)
Перелік серій:

01. Part 1
02. Part 2
03. Part 3
04. Part 4
Якість: AVC
Відео:
кодек:
розмір кадру: 720 x 388
бітрейт: 1 100 кб/с

Аудіо # 1:
мова: українська | "Цікава Ідея"
переклад: професійний багатоголосий закадровий
кодек: 5.1
бітрейт: 448 кб/с

Аудіо # 2:
мова: англійська
переклад: оригінал
кодек: E- 5.1
бітрейт: 448 кб/с
Info
Код:
Format                      :
Format version              : Version 4
File size                   : 741 MiB
Duration                    : 52 min 36 s
Overall bit rate            : 1 971 kb/s
Movie name                  : Неортодоксальна / Unorthodox - S01E01 (2020) AVC [Ukr.Eng] [Цікава Ідея]
Encoded date                : UTC 2020-07-15 17:33:56
Writing application         : v6.8.0 ('Theme for Great Cities') 32bit built on Mar  2 2014 21:27:07
Writing library             : libebml v1.3.0 + v1.4.1
Cover                       : Yes
Attachments                 : cover.jpg

Video
ID                          : 1
Format                      : AVC
Format/Info                 : Advanced Video Codec
Format profile              : [email protected]
Format settings             : CABAC / 5 Ref Frames
Format settings, CABAC      : Yes
Format settings, Reference  : 5 frames
Codec ID                    : V_MPEG4/ISO/AVC
Duration                    : 52 min 36 s
Bit rate                    : 1 035 kb/s
Nominal bit rate            : 1 100 kb/s
Width                       : 720 pixels
Height                      : 388 pixels
Display aspect ratio        : 1.85:1
Original display aspect rat : 1.85:1
Frame rate mode             : Constant
Frame rate                  : 24.000 FPS
Color space                 : YUV
Chroma subsampling          : 4:2:0
Bit depth                   : 8 bits
Scan type                   : Progressive
Bits/(Pixel*Frame)          : 0.154
Stream size                 : 390 MiB (53%)
Writing library             : core 148 r2795M aaa9aa8
Encoding settings           : cabac=1 / ref=5 / deblock=1:-1:-1 / analyse=0x3:0x113 / me=umh / subme=9 / psy=1 / psy_rd=1.00:0.15 / mixed_ref=1 / me_range=16 / chroma_me=1 / trellis=2 / 8x8dct=1 / cqm=0 / deadzone=21,11 / fast_pskip=1 / chroma_qp_offset=-3 / threads=24 / lookahead_threads=2 / sliced_threads=0 / nr=0 / decimate=1 / interlaced=0 / bluray_compat=0 / constrained_intra=0 / bframes=3 / b_pyramid=2 / b_adapt=2 / b_bias=0 / direct=3 / weightb=1 / open_gop=0 / weightp=2 / keyint=250 / keyint_min=24 / scenecut=40 / intra_refresh=0 / rc_lookahead=50 / rc=abr / mbtree=1 / bitrate=1100 / ratetol=1.0 / qcomp=0.60 / qpmin=0 / qpmax=69 / qpstep=4 / ip_ratio=1.40 / aq=1:1.00
Default                     : Yes
Forced                      : No

Audio #1
ID                          : 2
Format                      : AC-3
Format/Info                 : Audio Coding 3
Commercial name             : Dolby Digital
Codec ID                    : A_AC3
Duration                    : 52 min 36 s
Bit rate mode               : Constant
Bit rate                    : 448 kb/s
Channel(s)                  : 6 channels
Channel layout              : L R C LFE Ls Rs
Sampling rate               : 48.0 kHz
Frame rate                  : 31.250 FPS (1536 SPF)
Bit depth                   : 16 bits
Compression mode            : Lossy
Stream size                 : 169 MiB (23%)
Title                       : Цікава Ідея
Language                    : Ukrainian
Service kind                : Complete Main
Default                     : Yes
Forced                      : No

Audio #2
ID                          : 3
Format                      : E-AC-3
Format/Info                 : Enhanced AC-3
Commercial name             : Dolby Digital Plus
Codec ID                    : A_EAC3
Duration                    : 52 min 36 s
Bit rate mode               : Constant
Bit rate                    : 448 kb/s
Channel(s)                  : 6 channels
Channel layout              : L R C LFE Ls Rs
Sampling rate               : 48.0 kHz
Frame rate                  : 31.250 FPS (1536 SPF)
Compression mode            : Lossy
Stream size                 : 169 MiB (23%)
Title                       : English
Language                    : English
Service kind                : Complete Main
Default                     : No
Forced                      : No
Скріншоти



Озвучено творчим об'єднанням:
Ролі озвучили: Євген Малуха, Юлія Малахова, Семен Птаха, Ольга Мотрич, Ганна Квочкіна та Олександр Чернов.


Авторський реліз (завантажувати можна без реєстрації)
 Трекер:    Зареєстрований   

Завантажити / скачати серіал українською



відео для новачків



 Зареєстрований:   2020-07-15 21:22
 Розмір:   3.18 GB 
 Оцінка серіалу:   7.6/10 (Голосів: 15)
   
don pedro 
Попереджень: 1
Попереджень: 1 


З нами з: 29.06.11
Востаннє: 24.09.20
Повідомлень: 17745

2020-07-15 22:06  
Схоже, озвучують за моєю наводкоюHappy
https://toloka.to/t112328
Ще скоро буде "Мені це не подобається".

don pedro 
Попереджень: 1
Попереджень: 1 


З нами з: 29.06.11
Востаннє: 24.09.20
Повідомлень: 17745

2020-08-28 23:20  
Чудовий серіал про своєрідних людей.
don pedro 
Попереджень: 1
Попереджень: 1 


З нами з: 29.06.11
Востаннє: 24.09.20
Повідомлень: 17745

2020-08-30 22:44  
Переклад місцями ще той. Друга серія, 31 хвилина: "Приходь у гуртожиток о восьмій. Я готовлю".
Ваш часовий пояс: GMT + 2 Години

Нова тема   Відповісти