Неортодоксальна (Сезон 1) / Unorthodox (Season 1) (2020) 1080p Ukr/Eng

Нові коментарі

Нова тема   Відповісти
Автор Повідомлення
Цікава ідея 
VIP


З нами з: 25.12.11
Востаннє: 28.10.20
Повідомлень: 704

2020-07-15 20:20  
AVC | 1080p

Неортодоксальна (Сезон 1) / Unorthodox (Season 1) (2020) 1080p Ukr/Eng


Неортодоксальна (Сезон 1) / Unorthodox (Season 1) (2020) 1080p Ukr/Eng


Жанр: драма
Країна: Німеччина



Кінокомпанія / телеканал: Real Film Berlin, Studio Airlift
Режисери: Марія Шрадер
Актори: Шира Гаас, Аміт Рахав, Джефф Вільбуш, Алекс Рід, Роніт Ашері, Делія Майер, Діна Дорон, Давид Мандельбавум, Гера Сандлер та інші.

Сюжет:
19-річна єврейка на ім'я Есті тікає від шлюбу та ультраортодоксальної громади в Вільямсбурзі. Вона переїжджає до Берліна, де живе її мати, і намагається вести світське життя, відвідувати заняття в консерваторії. Її чоловік, дізнавшись, що Есті вагітна, за наказом рабина відправляється до Берліна зі своїм двоюрідним братом, щоб спробувати знайти її.


Перекладено та озвучено ТО "Цікава Ідея" за підтримки fishMD


Тривалість: 1 серія: ~ 52 хв. (цілком серій: 4)
Перелік серій:

01. Part 1
02. Part 2
03. Part 3
04. Part 4
Якість: 1080p
Відео:
кодек:
розмір кадру: 1920 x 1038
бітрейт: ~ 9000 кб/с

Аудіо # 1:
мова: українська | "Цікава Ідея"
переклад: професійний багатоголосий закадровий
кодек: 5.1
бітрейт: 448 кб/с

Аудіо # 2:
мова: англійська
переклад: оригінал
кодек: E- 5.1
бітрейт: 448 кб/с
Info
Код:
Format                      :
Format version              : Version 4
File size                   : 3.59 GiB
Duration                    : 52 min 36 s
Overall bit rate            : 9 780 kb/s
Movie name                  : Неортодоксальна / Unorthodox - S01E01 (2020) 1080p [Ukr.Eng] [Цікава Ідея]
Encoded date                : UTC 2020-07-15 17:29:41
Writing application         : v6.8.0 ('Theme for Great Cities') 32bit built on Mar  2 2014 21:27:07
Writing library             : libebml v1.3.0 + v1.4.1
Cover                       : Yes
Attachments                 : cover.jpg

Video
ID                          : 1
Format                      : AVC
Format/Info                 : Advanced Video Codec
Format profile              : [email protected]
Format settings             : CABAC / 4 Ref Frames
Format settings, CABAC      : Yes
Format settings, Reference  : 4 frames
Codec ID                    : V_MPEG4/ISO/AVC
Duration                    : 52 min 36 s
Bit rate                    : 8 689 kb/s
Width                       : 1 920 pixels
Height                      : 1 038 pixels
Display aspect ratio        : 1.85:1
Frame rate mode             : Constant
Frame rate                  : 24.000 FPS
Color space                 : YUV
Chroma subsampling          : 4:2:0
Bit depth                   : 8 bits
Scan type                   : Progressive
Bits/(Pixel*Frame)          : 0.182
Stream size                 : 3.19 GiB (89%)
Writing library             : core 160 r3000+55 7d98a0e patched [(8 & 10)[email protected] X86_64]
Encoding settings           : cabac=1 / ref=4 / deblock=1:-3:-3 / analyse=0x3:0x133 / me=umh / subme=10 / psy=1 / fade_compensate=0.00 / psy_rd=1.00:0.15 / mixed_ref=1 / me_range=48 / chroma_me=1 / trellis=2 / 8x8dct=1 / cqm=0 / deadzone=21,11 / fast_pskip=0 / chroma_qp_offset=-3 / threads=12 / lookahead_threads=2 / sliced_threads=0 / nr=0 / decimate=0 / interlaced=0 / bluray_compat=0 / constrained_intra=0 / fgo=0 / bframes=8 / b_pyramid=2 / b_adapt=2 / b_bias=0 / direct=3 / weightb=1 / open_gop=0 / weightp=2 / keyint=250 / keyint_min=24 / scenecut=40 / intra_refresh=0 / rc=crf / mbtree=0 / crf=18.0000 / qcomp=0.60 / qpmin=0:0:0 / qpmax=69:69:69 / qpstep=4 / ip_ratio=1.30 / pb_ratio=1.20 / aq=3:0.80 / aq-sensitivity=10.00 / aq-factor=1.00:1.00:1.00 / aq2=0 / aq3=0
Default                     : Yes
Forced                      : No

Audio #1
ID                          : 2
Format                      : AC-3
Format/Info                 : Audio Coding 3
Commercial name             : Dolby Digital
Codec ID                    : A_AC3
Duration                    : 52 min 36 s
Bit rate mode               : Constant
Bit rate                    : 448 kb/s
Channel(s)                  : 6 channels
Channel layout              : L R C LFE Ls Rs
Sampling rate               : 48.0 kHz
Frame rate                  : 31.250 FPS (1536 SPF)
Bit depth                   : 16 bits
Compression mode            : Lossy
Stream size                 : 169 MiB (5%)
Title                       : Цікава Ідея
Language                    : Ukrainian
Service kind                : Complete Main
Default                     : Yes
Forced                      : No

Audio #2
ID                          : 3
Format                      : E-AC-3
Format/Info                 : Enhanced AC-3
Commercial name             : Dolby Digital Plus
Codec ID                    : A_EAC3
Duration                    : 52 min 36 s
Bit rate mode               : Constant
Bit rate                    : 448 kb/s
Channel(s)                  : 6 channels
Channel layout              : L R C LFE Ls Rs
Sampling rate               : 48.0 kHz
Frame rate                  : 31.250 FPS (1536 SPF)
Compression mode            : Lossy
Stream size                 : 169 MiB (5%)
Title                       : English
Language                    : English
Service kind                : Complete Main
Default                     : No
Forced                      : No
Скріншоти



Озвучено творчим об'єднанням:
Ролі озвучили: Євген Малуха, Юлія Малахова, Семен Птаха, Ольга Мотрич, Ганна Квочкіна та Олександр Чернов.


Авторський реліз (завантажувати можна без реєстрації)
 Трекер:    Зареєстрований   

Завантажити / скачати серіал українською



відео для новачків



 Зареєстрований:   2020-07-15 20:20
 Розмір:   15.61 GB 
 Оцінка серіалу:   9.5/10 (Голосів: 8)
   
Mr_GoldMan 
Новенький


З нами з: 01.12.13
Востаннє: 27.10.20
Повідомлень: 19

2020-09-01 20:30  
станьте на роздачу будь ласка)
Ваш часовий пояс: GMT + 2 Години

Нова тема   Відповісти