Дев'ятки / The Nines (2007) AVC 2xUkr/Eng | Sub Eng

Нові коментарі

Нова тема   Відповісти
Автор Повідомлення
staf777 
Відео Гуртом - підтримка та поширення
Відео Гуртом - підтримка та поширення


З нами з: 16.11.16
Востаннє: 05.08.20
Повідомлень: 3928

2020-07-15 14:40  
Дев'ятки / The Nines (2007) AVC 2xUkr/Eng | Sub Eng

Дев'ятки / The Nines (2007) AVC 2xUkr/Eng | Sub Eng


Жанр: драма, фентезі, детектив, фантастика, трилер
Країна: США



Кінокомпанія: Destination Films, Jinks/Cohen Company
Режисер: Джон Ауґуст / John August
Актори: Раян Рейнольдс / Ryan Reynolds, Мелісса МакКарті / Melissa McCarthy, Гоуп Девіс / Hope Davis, Ель Фаннінґ / Elle Fanning, Девід Денман / David Denman, Октавія Спенсер / Octavia Spencer, Бен Фалконе / Ben Falcone, Далія Салем / Dahlia Salem, Джон Ґатінс / John Gatins, Анді Філдер / Andy Fielder, Джуді Селлардс / Jodi Sellards, Ґреґ Байне / Greg Baine, Мартін Ю / Martin Yu, Ґреґґ Наман / Gregg Naaman, Лорін Скафаріа / Lorene Scafaria

Сюжет:
Життєві шляхи неспокійного актора, учасника ТБ-шоу і широко привітного проектувальника відеоігор сплелися загадковим і тривожним чином.


Тривалість: 01:39:30
Якість: AVC (Blu-Ray Remux (1080р))
Відео:
кодек:
розмір кадру: 1024x552
бітрейт: 2177 кб/с

Аудіо # 1:
мова: українська
переклад: багатоголосий закадровий
кодек: 2.0
бітрейт: 192 кб/с

Аудіо # 2:
мова: українська
переклад: багатоголосий закадровий
кодек: 2.0
бітрейт: 192 кб/с

Аудіо # 3:
мова: англійська
переклад: оригінал
кодек: 5.1
бітрейт: 448 кб/с

Субтитри:
мова: англійська
тип: вбудовані (жорсткі)
Info
General
Unique ID : 310332191466821190251913870541736585590 (0xE977CE57AD009EC0F503A87C31B32976)
Complete name : Z:\Фільми AVC\Фантастика\The Nines (2007) AVC [2xUkr][Eng][Hurtom].
Format :
Format version : Version 4
File size : 2.09 GiB
Duration : 1 h 39 min
Overall bit rate : 3 011 kb/s
Movie name : Дев'ятки / The Nines (2007) AVC [2xUkr][Eng][Hurtom]
Encoded date : UTC 2020-07-16 12:44:34
Writing application : v46.0.0 ('No Deeper Escape') 64-bit
Writing library : libebml v1.3.10 + v1.5.2
Cover : Yes
Attachments : cover.jpg

Video
ID : 1
Format : AVC
Format/Info : Advanced Video Codec
Format profile : [email protected]
Format settings : CABAC / 6 Ref Frames
Format settings, CABAC : Yes
Format settings, Reference : 6 frames
Codec ID : V_MPEG4/ISO/AVC
Duration : 1 h 39 min
Bit rate : 2 177 kb/s
Width : 1 024 pixels
Height : 552 pixels
Display aspect ratio : 1.85:1
Frame rate mode : Constant
Frame rate : 23.976 FPS
Color space : YUV
Chroma subsampling : 4:2:0
Bit depth : 8 bits
Scan type : Progressive
Bits/(Pixel*Frame) : 0.161
Stream size : 1.51 GiB (72%)
Writing library : core 115 r1937 aa21558
Encoding settings : cabac=1 / ref=6 / deblock=1:-1:-1 / analyse=0x3:0x113 / me=hex / subme=6 / psy=1 / psy_rd=1.00:0.10 / mixed_ref=0 / me_range=16 / chroma_me=1 / trellis=1 / 8x8dct=1 / cqm=0 / deadzone=21,11 / fast_pskip=1 / chroma_qp_offset=-3 / threads=6 / sliced_threads=0 / nr=0 / decimate=1 / interlaced=0 / bluray_compat=0 / constrained_intra=0 / bframes=6 / b_pyramid=2 / b_adapt=2 / b_bias=0 / direct=3 / weightb=1 / open_gop=0 / weightp=0 / keyint=250 / keyint_min=23 / scenecut=40 / intra_refresh=0 / rc_lookahead=30 / rc=2pass / mbtree=1 / bitrate=2177 / ratetol=1.0 / qcomp=0.60 / qpmin=15 / qpmax=47 / qpstep=3 / cplxblur=20.0 / qblur=0.5 / ip_ratio=1.40 / aq=1:1.10
Language : English
Default : Yes
Forced : No

Audio #1
ID : 2
Format : AC-3
Format/Info : Audio Coding 3
Commercial name : Dolby Digital
Codec ID : A_AC3
Duration : 1 h 39 min
Bit rate mode : Constant
Bit rate : 192 kb/s
Channel(s) : 2 channels
Channel layout : L R
Sampling rate : 48.0 kHz
Frame rate : 31.250 FPS (1536 SPF)
Compression mode : Lossy
Stream size : 137 MiB (6%)
Title : UKR (K1)
Language : Ukrainian
Service kind : Complete Main
Default : Yes
Forced : Yes

Audio #2
ID : 3
Format : AC-3
Format/Info : Audio Coding 3
Commercial name : Dolby Digital
Codec ID : A_AC3
Duration : 1 h 39 min
Bit rate mode : Constant
Bit rate : 192 kb/s
Channel(s) : 2 channels
Channel layout : L R
Sampling rate : 48.0 kHz
Frame rate : 31.250 FPS (1536 SPF)
Compression mode : Lossy
Stream size : 137 MiB (6%)
Title : UKR (1+1)
Language : Ukrainian
Service kind : Complete Main
Default : No
Forced : No

Audio #3
ID : 4
Format : AC-3
Format/Info : Audio Coding 3
Commercial name : Dolby Digital
Codec ID : A_AC3
Duration : 1 h 39 min
Bit rate mode : Constant
Bit rate : 448 kb/s
Channel(s) : 6 channels
Channel layout : L R C LFE Ls Rs
Sampling rate : 48.0 kHz
Frame rate : 31.250 FPS (1536 SPF)
Compression mode : Lossy
Stream size : 319 MiB (15%)
Title : [Original]
Language : English
Service kind : Complete Main
Default : No
Forced : No

Menu
00:00:00.000 : :00:00:00.000
00:07:49.928 : :00:07:49.928
00:17:17.703 : :00:17:17.703
00:24:37.518 : :00:24:37.518
00:33:11.239 : :00:33:11.239
00:41:30.947 : :00:41:30.947
00:49:40.019 : :00:49:40.019
01:01:00.240 : :01:01:00.240
01:08:10.920 : :01:08:10.920
01:17:33.524 : :01:17:33.524
01:25:34.212 : :01:25:34.212
01:34:30.665 : :01:34:30.665
Скріншоти
За доріжки подяка п.: andic, xslim, ratbol, karvai0
Джерело:


 Трекер:    Зареєстрований   

Завантажити / скачати фільм українською



відео для новачків



 Зареєстрований:   2020-07-16 17:14
 Розмір:   2.09 GB 
 Оцінка фільму:   8.8/10 (Голосів: 17)
   
Інші релізи
   Дев'ятки / The Nines (2007) 1080p 2xUkr/Eng | Sub Eng staf777  2 / 0   10.75 GB   2020-07-15 21:29 
   Дев'ятки / The Nines (2007) 720p 2xUkr/Eng | Sub Eng drop_plz  2 / 0   5.76 GB   2020-07-10 14:09 
   Дев'ятки / The Nines (2007) Remux 1080p Ukr/Eng | Sub Eng sandman  1 / 0   22.09 GB   2020-03-21 16:51 
   Дев’ятки / The Nines (2007) Ukr/Eng | Sub Eng karvai0  1 / 2   1.77 GB   2013-01-09 13:27 
bot 
робот


З нами з: 30.09.07
Востаннє: 26.05.05
Повідомлень: 25168

2020-07-16 17:14  
Тему перенесено з Анонси релізів до форуму Фільми


staf777

Nickolassssssss 
VIP


З нами з: 31.05.14
Востаннє: 04.08.20
Повідомлень: 318

2020-07-18 07:43  
Дуже гарний фільм. Абсолютно не очікував такого.
Ваш часовий пояс: GMT + 2 Години

Нова тема   Відповісти