Книга Рут / The Book of Ruth (2004)

Нові коментарі

Нова тема   Відповісти
Автор Повідомлення
urij546724 
Відео Гуртом - фільмокрай
Відео Гуртом - фільмокрай


З нами з: 16.03.10
Востаннє: 04.08.20
Повідомлень: 5691

2020-07-14 18:50  
Книга Рут / The Book of Ruth (2004)



Жанр: драма
Країна: Канада, США



Кіностудія / кінокомпанія: Book of Ruth Productions Inc., Robert Greenwald Productions
Режисер: Білл Іглз (Bill Eagles)
Актори: Крістін Лахті (Christine Lahti), Ніколь Том (Nicholle Tom), Еван Джонс (Evan Jones), Теріл Ротері (Teryl Rothery), Крістін Віллес (Christine Willes), Стівен Е. Міллер (Stephen E. Miller), Норман Армор (Norman Armour)...

Сюжет:
За романом Джейн Хемілтон. У селі штату Іллінойс живе Рут Грей, молода жінка, чиє життя підпорядковане її фанатичній матері, слабохарактерному батькові і жорстокому братові. Шанс отримати свободу з'являється у Рут, коли вона виходить заміж за Рубі, душевнохворого хлопця, який, проте, надзвичайно любить її. Але ця ілюзорна свобода для Рут має свою ціну і є безповоротним рішенням, яке хоча і шокує, але, врешті-решт, допомагає їй визначитися.


Тривалість: 01:29:44
Якість:
Відео:
кодек: DivX 3
розмір кадру: 720 х 544
бітрейт: 1497 кб/с
частота кадрів: 25 к/с (fps)

Аудіо #1:
мова: українська
переклад: двоголосий закадровий
кодек: 2.0
бітрейт: 192 кб/с
озвучено: З ранку до ночі на замовлення ICTV
Media info:
General
Format : AVI
Format/Info : Audio Video Interleave
File size : 1.07 GiB
Duration : 1 h 29 min
Overall bit rate : 1 699 kb/s
Writing application : VirtualDubMod 1.5.10.2 (build 2540/release)
Writing library : VirtualDubMod build 2540/release

Video
ID : 0
Format : MPEG-4 Visual
Codec ID : DIV3
Codec ID/Hint : DivX 3 Low
Duration : 1 h 29 min
Bit rate : 1 497 kb/s
Width : 720 pixels
Height : 544 pixels
Display aspect ratio : 4:3
Frame rate : 25.000 FPS
Color space : YUV
Chroma subsampling : 4:2:0
Bit depth : 8 bits
Compression mode : Lossy
Bits/(Pixel*Frame) : 0.153
Stream size : 961 MiB (88%)

Audio
ID : 1
Format : AC-3
Format/Info : Audio Coding 3
Commercial name : Dolby Digital
Codec ID : 2000
Duration : 1 h 29 min
Bit rate mode : Constant
Bit rate : 192 kb/s
Channel(s) : 2 channels
Channel layout : L R
Sampling rate : 48.0 kHz
Frame rate : 31.250 FPS (1536 SPF)
Compression mode : Lossy
Stream size : 123 MiB (11%)
Alignment : Split across interleaves
Interleave, duration : 40 ms (1.00 video frame)
Interleave, preload duratio : 500 ms
Title : Українська доріжка
Service kind : Complete Main
Скріншоти:





Семпл:
Джерело 1_________Джерело 2_________Джерело 3_________Джерело 4_________Джерело 5
У випадку, якщо з усіх джерел семпл видалять, прохання повідомити мені у ПРИВАТ


Подяка:

1. Пану Hulk1987 за запис звуку з ТБ.


Реліз створено:


Срібний реліз (на рейтинг впливає 50% завантаженого)
 Трекер:    Зареєстрований   

Завантажити / скачати фільм українською



відео для новачків



 Зареєстрований:   2020-07-14 18:50
 Розмір:   1.07 GB 
 Оцінка фільму:   1/10 (Голосів: 2)
 Прохання не тікати з роздачі і залишати коментарі.
   
Ваш часовий пояс: GMT + 2 Години

Нова тема   Відповісти