Ранкове шоу (Сезон 1) / The Morning Show (Season 1) (2019) AVC Ukr/Eng

Нові коментарі

Нова тема   Відповісти
Автор Повідомлення
Цікава ідея 
VIP


З нами з: 26.12.11
Востаннє: 29.09.20
Повідомлень: 668

2020-07-14 18:42  
AVC | 1080p

Ранкове шоу (Сезон 1) / The Morning Show (Season 1) (2019) AVC Ukr/Eng


Ранкове шоу (Сезон 1) / The Morning Show (Season 1) (2019) AVC Ukr/Eng


Жанр: драма
Країна: США



Кінокомпанія / телеканал: Media Res, Echo Films, Hello Sunshine
Режисери: Джей Карсон, Керрі Ерін
Актори: Дженніфер Еністон, Різ Візерспун, Стів Карелл, Біллі Крудап, Гугу Мбата‑Роу та інші.

Сюжет:
Розкрийте для себе таємниці ранкового телебачення. У цій драмі з Різ Візерспун, Дженіфер Еністон і Стівом Кареллом відверто показані сучасні умови роботи людей, що допомагають Америці прокинутися.


Озвучено ТО "Цікава Ідея" за підтримки fishMD


Тривалість: 1 серія: ~ 55 хв. (цілком серій: 10)
Перелік серій:

01. In the Dark Night of the Soul It's Always 3:30 in the Morning
02. A Seat at the Table
03. Chaos Is the New Cocaine
04. That Woman
05. No One's Gonna Harm You, Not While I'm Around
06. The Pendulum Swings
07. Open Waters
08. Lonely at the Top
09. Play the Queen
10. The Interview
Якість: AVC
Відео:
кодек:
розмір кадру: 720 x 360
бітрейт: ~ 1 100 кб/с

Аудіо # 1:
мова: українська | "Цікава Ідея"
переклад: професійний багатоголосий закадровий
кодек: 5.1
бітрейт: 448 кб/с

Аудіо # 2:
мова: англійська
переклад: оригінал
кодек: E- 5.1
бітрейт: 768 кб/с
Info
Код:
Format                      :
Format version              : Version 4
File size                   : 1.02 GiB
Duration                    : 1 h 3 min
Overall bit rate            : 2 292 kb/s
Movie name                  : Ранкове шоу / The Morning Show - S01E01 (2019) AVC [Ukr.Eng] [Цікава Ідея]
Encoded date                : UTC 2020-07-12 21:48:00
Writing application         : v6.8.0 ('Theme for Great Cities') 32bit built on Mar  2 2014 21:27:07
Writing library             : libebml v1.3.0 + v1.4.1
Cover                       : Yes
Attachments                 : cover.jpg

Video
ID                          : 1
Format                      : AVC
Format/Info                 : Advanced Video Codec
Format profile              : [email protected]
Format settings             : CABAC / 5 Ref Frames
Format settings, CABAC      : Yes
Format settings, Reference  : 5 frames
Codec ID                    : V_MPEG4/ISO/AVC
Duration                    : 1 h 3 min
Bit rate                    : 1 030 kb/s
Nominal bit rate            : 1 100 kb/s
Width                       : 720 pixels
Height                      : 360 pixels
Display aspect ratio        : 2.000
Frame rate mode             : Constant
Frame rate                  : 23.976 (24000/1001) FPS
Color space                 : YUV
Chroma subsampling          : 4:2:0
Bit depth                   : 8 bits
Scan type                   : Progressive
Bits/(Pixel*Frame)          : 0.166
Stream size                 : 469 MiB (45%)
Writing library             : core 148 r2795M aaa9aa8
Encoding settings           : cabac=1 / ref=5 / deblock=1:-1:-1 / analyse=0x3:0x113 / me=umh / subme=9 / psy=1 / psy_rd=1.00:0.15 / mixed_ref=1 / me_range=16 / chroma_me=1 / trellis=2 / 8x8dct=1 / cqm=0 / deadzone=21,11 / fast_pskip=1 / chroma_qp_offset=-3 / threads=24 / lookahead_threads=2 / sliced_threads=0 / nr=0 / decimate=1 / interlaced=0 / bluray_compat=0 / constrained_intra=0 / bframes=3 / b_pyramid=2 / b_adapt=2 / b_bias=0 / direct=3 / weightb=1 / open_gop=0 / weightp=2 / keyint=250 / keyint_min=23 / scenecut=40 / intra_refresh=0 / rc_lookahead=50 / rc=abr / mbtree=1 / bitrate=1100 / ratetol=1.0 / qcomp=0.60 / qpmin=0 / qpmax=69 / qpstep=4 / ip_ratio=1.40 / aq=1:1.00
Default                     : Yes
Forced                      : No

Audio #1
ID                          : 2
Format                      : AC-3
Format/Info                 : Audio Coding 3
Commercial name             : Dolby Digital
Codec ID                    : A_AC3
Duration                    : 1 h 3 min
Bit rate mode               : Constant
Bit rate                    : 448 kb/s
Channel(s)                  : 6 channels
Channel layout              : L R C LFE Ls Rs
Sampling rate               : 48.0 kHz
Frame rate                  : 31.250 FPS (1536 SPF)
Bit depth                   : 16 bits
Compression mode            : Lossy
Stream size                 : 204 MiB (20%)
Title                       : Цікава Ідея
Language                    : Ukrainian
Service kind                : Complete Main
Default                     : Yes
Forced                      : No

Audio #2
ID                          : 3
Format                      : E-AC-3 JOC
Format/Info                 : Enhanced AC-3 with Joint Object Coding
Commercial name             : Dolby Digital Plus with Dolby Atmos
Codec ID                    : A_EAC3
Duration                    : 1 h 3 min
Bit rate mode               : Constant
Bit rate                    : 768 kb/s
Channel(s)                  : 6 channels
Channel layout              : L R C LFE Ls Rs
Sampling rate               : 48.0 kHz
Frame rate                  : 31.250 FPS (1536 SPF)
Compression mode            : Lossy
Stream size                 : 350 MiB (34%)
Title                       : English
Language                    : English
Service kind                : Complete Main
Default                     : No
Forced                      : No
Complexity index            : 16
Number of dynamic objects   : 15
Bed channel count           : 1 channel
Bed channel configuration   : LFE
Скріншоти



Озвучено творчим об'єднанням:


Авторський реліз (завантажувати можна без реєстрації)
 Трекер:    Зареєстрований   

Завантажити / скачати серіал українською



відео для новачків



 Зареєстрований:   2020-07-16 18:12
 Розмір:   9.53 GB 
 Оцінка серіалу:   10/10 (Голосів: 24)
   
Цікава ідея 
VIP


З нами з: 26.12.11
Востаннє: 29.09.20
Повідомлень: 668

2020-07-16 18:13  
Прохання перезавантажити 6ту серію.
[виправлено репліку]


Бажаємо всім приємного перегляду!

olegislawyer 
Новенький


З нами з: 26.03.19
Востаннє: 26.09.20
Повідомлень: 1

2020-07-19 22:43  
Шикарний серіал. Усім раджу.
grindersUA 
Новенький


З нами з: 02.04.11
Востаннє: 28.09.20
Повідомлень: 15

2020-08-22 11:16  
Воооооу! Класний серіал! І каст БОМБА! Всі дуже круто підійшли. Раджу!
StepanXolera 
Новенький


З нами з: 08.08.16
Востаннє: 26.09.20
Повідомлень: 10

2020-08-26 20:49  
Дуже дякую за серіал, чудова перекладацька робота!
Є лише зауваження щодо роздільної здатності відео 720х360.. Серйозно?

Цікава ідея 
VIP


З нами з: 26.12.11
Востаннє: 29.09.20
Повідомлень: 668

2020-08-26 23:47  
StepanXolera написано:
Є лише зауваження щодо роздільної здатності відео 720х360.. Серйозно?

Є 1080p — https://toloka.to/t112819

Ваш часовий пояс: GMT + 2 Години

Нова тема   Відповісти