Ранкове шоу (Сезон 1) / The Morning Show (Season 1) (2019) 1080p Ukr/Eng

Нові коментарі

Нова тема   Відповісти
Автор Повідомлення
Цікава ідея 
VIP


З нами з: 25.12.11
Востаннє: 29.11.20
Повідомлень: 729

2020-07-14 17:42  
AVC | 1080p

Ранкове шоу (Сезон 1) / The Morning Show (Season 1) (2019) 1080p Ukr/Eng


Ранкове шоу (Сезон 1) / The Morning Show (Season 1) (2019) 1080p Ukr/Eng


Жанр: драма
Країна: США



Кінокомпанія / телеканал: Media Res, Echo Films, Hello Sunshine
Режисери: Джей Карсон, Керрі Ерін
Актори: Дженніфер Еністон, Різ Візерспун, Стів Карелл, Біллі Крудап, Гугу Мбата‑Роу та інші.

Сюжет:
Розкрийте для себе таємниці ранкового телебачення. У цій драмі з Різ Візерспун, Дженіфер Еністон і Стівом Кареллом відверто показані сучасні умови роботи людей, що допомагають Америці прокинутися.


Озвучено ТО "Цікава Ідея" за підтримки fishMD


Тривалість: 1 серія: ~ 55 хв. (цілком серій: 10)
Перелік серій:

01. In the Dark Night of the Soul It's Always 3:30 in the Morning
02. A Seat at the Table
03. Chaos Is the New Cocaine
04. That Woman
05. No One's Gonna Harm You, Not While I'm Around
06. The Pendulum Swings
07. Open Waters
08. Lonely at the Top
09. Play the Queen
10. The Interview
Якість: 1080p
Відео:
кодек:
розмір кадру: 1920 x 960
бітрейт: ~ 9000 кб/с

Аудіо # 1:
мова: українська | "Цікава Ідея"
переклад: професійний багатоголосий закадровий
кодек: 5.1
бітрейт: 448 кб/с

Аудіо # 2:
мова: англійська
переклад: оригінал
кодек: E- 5.1
бітрейт: 768 кб/с
Info
Код:
Format                      :
Format version              : Version 4
File size                   : 4.98 GiB
Duration                    : 1 h 3 min
Overall bit rate            : 11.2 Mb/s
Movie name                  : Ранкове шоу / The Morning Show - S01E01 (2019) 1080p [Ukr.Eng] [Цікава Ідея]
Encoded date                : UTC 2020-07-12 21:07:14
Writing application         : v6.8.0 ('Theme for Great Cities') 32bit built on Mar  2 2014 21:27:07
Writing library             : libebml v1.3.0 + v1.4.1
Cover                       : Yes
Attachments                 : cover.jpg

Video
ID                          : 1
Format                      : AVC
Format/Info                 : Advanced Video Codec
Format profile              : [email protected]
Format settings             : CABAC / 4 Ref Frames
Format settings, CABAC      : Yes
Format settings, Reference  : 4 frames
Codec ID                    : V_MPEG4/ISO/AVC
Duration                    : 1 h 3 min
Bit rate                    : 9 764 kb/s
Width                       : 1 920 pixels
Height                      : 960 pixels
Display aspect ratio        : 2.000
Frame rate mode             : Constant
Frame rate                  : 23.976 (24000/1001) FPS
Color space                 : YUV
Chroma subsampling          : 4:2:0
Bit depth                   : 8 bits
Scan type                   : Progressive
Bits/(Pixel*Frame)          : 0.221
Stream size                 : 4.34 GiB (87%)
Default                     : Yes
Forced                      : No
Color range                 : Limited
Color primaries             : BT.709
Transfer characteristics    : BT.709
Matrix coefficients         : BT.709

Audio #1
ID                          : 2
Format                      : AC-3
Format/Info                 : Audio Coding 3
Commercial name             : Dolby Digital
Codec ID                    : A_AC3
Duration                    : 1 h 3 min
Bit rate mode               : Constant
Bit rate                    : 448 kb/s
Channel(s)                  : 6 channels
Channel layout              : L R C LFE Ls Rs
Sampling rate               : 48.0 kHz
Frame rate                  : 31.250 FPS (1536 SPF)
Bit depth                   : 16 bits
Compression mode            : Lossy
Stream size                 : 204 MiB (4%)
Title                       : Цікава Ідея
Language                    : Ukrainian
Service kind                : Complete Main
Default                     : Yes
Forced                      : No

Audio #2
ID                          : 3
Format                      : E-AC-3 JOC
Format/Info                 : Enhanced AC-3 with Joint Object Coding
Commercial name             : Dolby Digital Plus with Dolby Atmos
Codec ID                    : A_EAC3
Duration                    : 1 h 3 min
Bit rate mode               : Constant
Bit rate                    : 768 kb/s
Channel(s)                  : 6 channels
Channel layout              : L R C LFE Ls Rs
Sampling rate               : 48.0 kHz
Frame rate                  : 31.250 FPS (1536 SPF)
Compression mode            : Lossy
Stream size                 : 350 MiB (7%)
Title                       : English
Language                    : English
Service kind                : Complete Main
Default                     : No
Forced                      : No
Complexity index            : 16
Number of dynamic objects   : 15
Bed channel count           : 1 channel
Bed channel configuration   : LFE
Скріншоти



Озвучено творчим об'єднанням:


Авторський реліз (завантажувати можна без реєстрації)
 Трекер:    Зареєстрований   

Завантажити / скачати серіал українською



відео для новачків



 Зареєстрований:   2020-07-16 17:12
 Розмір:   46.3 GB 
 Оцінка серіалу:   9.9/10 (Голосів: 9)
   
RoMeL 
Відео Гуртом - підтримка та поширення
Відео Гуртом - підтримка та поширення


З нами з: 09.07.08
Востаннє: 29.11.20
Повідомлень: 224

2020-07-15 12:19  
Цікава ідея
Станьте на роздачу, бо ніхто не може докачати Happy

88mmc88 
Свій


З нами з: 21.12.09
Востаннє: 29.11.20
Повідомлень: 96

2020-07-15 19:52  
Як серіал, хто бачив?
don pedro 
Попереджень: 1
Попереджень: 1 


З нами з: 29.06.11
Востаннє: 28.11.20
Повідомлень: 18190

2020-07-15 21:16  
88mmc88
Серіал чудовий. Особливо акторською грою. Звісно, якщо можете обійтись без бойовичка і срачкових приколів та вас не відлякує сюжет, який ґрунтується на протидії/наслідках домагань на робочому місці у США.

RoMeL 
Відео Гуртом - підтримка та поширення
Відео Гуртом - підтримка та поширення


З нами з: 09.07.08
Востаннє: 29.11.20
Повідомлень: 224

2020-07-16 08:21  
В шостій серії оригінальний серіал Apple став оригінальним серіалом Netflix Happy
Цікава ідея 
VIP


З нами з: 25.12.11
Востаннє: 29.11.20
Повідомлень: 729

2020-07-16 14:04  
RoMeL спасибі) Вже виправили, скоро оновимо.
Цікава ідея 
VIP


З нами з: 25.12.11
Востаннє: 29.11.20
Повідомлень: 729

2020-07-16 17:13  
Прохання перезавантажити 6ту серію!
[виправлено репліку]


Бажаємо всім приємного перегляду!

doslis 
Свій


З нами з: 15.02.16
Востаннє: 29.11.20
Повідомлень: 67

2020-07-21 21:19  
Про "тяжку жіночу долю", вічну провину і "тягар звичайного білого чоловіка" перед усіма та інші "прикрості" другої найдревнішої професії.
Ваш часовий пояс: GMT + 2 Години

Нова тема   Відповісти