Монахиня-воїн (Сезон 1) / Warrior Nun (Season 1) (2020)

Нові коментарі

Нова тема   Відповісти
Автор Повідомлення
DniproFilm 
VIP


З нами з: 10.10.18
Востаннє: 31.07.20
Повідомлень: 426

2020-07-14 14:43  
Монахиня-воїн (Сезон 1) / Warrior Nun (Season 1) (2020)

Монахиня-воїн (Сезон 1) / Warrior Nun (Season 1) (2020)


Жанр: бойовик, драма, фентезі
Країна: США


Кінокомпанія / телеканал: Netflix, Fresco Film Services, Reality Distortion Field

Режисер: Саймон Баррі
Актори/ролі озвучують: Альба Баптиста, Тойя Тернер, Крістіна Тонтері-Янг, Лорена Андреа, Сільвія Де Фанті, Трістан Уллоа, Текла Рютен, Олівія Делькан, Жоакім ді Алмейда та інші

Сюжет:
Сюжет серіалу розповість про молоду дівчину, що прокинулася в морзі і була втягнута в давню боротьбу між силами добра і зла. Вона потрапляє в "Орден хрестоподібного меча" — таємне товариство монахинь-воїнів, що присягнулися захищати світ. Головній героїні належить поєднати життя дівчини-підлітка та обраній.


Тривалість: 1 серія: ~ 45 хв. (цілком серій: 10)
Перелік серій

01. Psalm 46:5
02. Proverbs 31:25
03. Ephesians 6:11
04. Ecclesiasticus 26:9-10
05. Matthew 7:13
06. Isaiah 30:20-21
07. Ephesians 4:22-24
08. Proverbs 14:1
09. 2 Corinthians 10:4
10. Revelation 2:10
Якість:
Відео:
кодек:
розмір кадру: 720x360
бітрейт: ~1800 кб/с

Аудіо # 1:
мова: українська
переклад: багатоголосий закадровий
кодек: 5.1
бітрейт: 384 кб/с

Джерело озвучення:
DniproFilm
Info

Video
ID : 0
Format : MPEG-4 Visual
Format profile : Advanced [email protected]
Format settings : BVOP2
Format settings, BVOP : 2
Format settings, QPel : No
Format settings, GMC : No warppoints
Format settings, Matrix : Default (H.263)
Muxing mode : Packed bitstream
Codec ID :
Codec ID/Hint :
Duration : 50 min 57 s
Bit rate : 1 596 kb/s
Width : 720 pixels
Height : 360 pixels
Display aspect ratio : 2.000
Frame rate : 23.976 (24000/1001) FPS
Color space : YUV
Chroma subsampling : 4:2:0
Bit depth : 8 bits
Scan type : Progressive
Compression mode : Lossy
Bits/(Pixel*Frame) : 0.257
Stream size : 582 MiB (80%)
Writing library : 69

Audio
ID : 1
Format : AC-3
Format/Info : Audio Coding 3
Commercial name : Dolby Digital
Codec ID : 2000
Duration : 50 min 57 s
Bit rate mode : Constant
Bit rate : 384 kb/s
Channel(s) : 6 channels
Channel layout : L R C LFE Ls Rs
Sampling rate : 48.0 kHz
Frame rate : 31.250 FPS (1536 SPF)
Compression mode : Lossy
Stream size : 140 MiB (19%)
Alignment : Aligned on interleaves
Interleave, duration : 42 ms (1.00 video frame)
Interleave, preload duratio : 512 ms
Service kind : Complete Main
Скріншоти




Авторський реліз (завантажувати можна без реєстрації)
 Трекер:    Зареєстрований   

Завантажити / скачати серіал українською



відео для новачків



 Зареєстрований:   2020-07-21 22:24
 Розмір:   6.1 GB 
 Оцінка серіалу:   7.6/10 (Голосів: 19)
   
Phantom 
Відео Гуртом - підтримка та поширення
Відео Гуртом - підтримка та поширення


З нами з: 29.01.08
Востаннє: 07.08.20
Повідомлень: 456

2020-07-14 21:01  
Дякую!!! Побачивши ваш анонс перекладу, дуже зрадів! Дякую за вашу роботу !
st_78 
VIP


З нами з: 18.11.16
Востаннє: 06.08.20
Повідомлень: 1224

2020-07-14 22:03  
Насправді у серіалу дуже не поганий початок — акцент зробили на головній героїні, а фентезійна частина йде фоном. Але фінал, який красномовно натякає на продовження, повна дичина. Другий сезон не дивитимусь.

Пісня з трейлеру — https://www.youtube.com/watch?v=NiZL0xeAYIM

don pedro 
Попереджень: 1
Попереджень: 1 


З нами з: 29.06.11
Востаннє: 08.08.20
Повідомлень: 17397

2020-07-17 02:44  
Гарний серіал, який не перенаситили милом і героїкою. Сподобалась і головна героїня. Гарно прописана. Другорядні дійові особи теж якісно зроблені. Особливо зграя, яка оселялась у чужих будинках. Чимось нагадала Алісію Вікандер та Емілі Кларк.
Серіал заслуговує кращого рейтингу. Добре, що Netflix співпрацює з іноземцями для створення своїх фільмів/серіалів. Виходить гарне поєднання американських грошей і технічних можливостей та іноземних (у даному випадку іберійських) обдарувань.

djeday 
Новенький


З нами з: 28.09.09
Востаннє: 07.08.20
Повідомлень: 4

2020-07-17 09:48  
Перепрошую, але 6-10 серії?
DniproFilm 
VIP


З нами з: 10.10.18
Востаннє: 31.07.20
Повідомлень: 426

2020-07-21 21:33  
Додано 5-10 серії (фінал).

nazarx 
Новенький


З нами з: 20.12.19
Востаннє: 25.07.20
Повідомлень: 20

2020-07-21 21:54  
Неможливо додати passkey

Торрент не зареєстрований на трекері

DniproFilm 
VIP


З нами з: 10.10.18
Востаннє: 31.07.20
Повідомлень: 426

2020-07-21 22:25  
Змінено 2 серію (виправлено звук).

tpolit 
VIP


З нами з: 10.01.15
Востаннє: 08.08.20
Повідомлень: 591

2020-07-22 23:08  
Ідея цікава, реалізація - така собі, на трієчку. Забагато зайвих діалогів, заторможений розвиток подій, дешева графіка, ще й дуже дратує поведінка головної героїні, якій прямо на голову звалилися навички джедая, а вона веде себе як примітивна тп, якій головне потусити і, бажано, в процесі потрахатись. Додивлюся і поставлю на імдб оцінку 5 чи 6.

Up: Таки додивився до кінця і вирішив змінити свою думку - поставив 1 бал на імдб цьому феміністично-лесбійському лайну.

don pedro 
Попереджень: 1
Попереджень: 1 


З нами з: 29.06.11
Востаннє: 08.08.20
Повідомлень: 17397

2020-07-23 10:30  
Гарний серіал, хоч події й розвиваються надто повільно.
nazarx 
Новенький


З нами з: 20.12.19
Востаннє: 25.07.20
Повідомлень: 20

2020-07-24 09:57  
Пустив сльозу від історії про лесбійку та фашистів Wide grin Wide grin Wide grin Wide grin Wide grin Wide grin Wide grin Wide grin
Фільм - просто неймовірна муть про крутих жінок, які розкидають чоловіків наліво та направо. Чим далі в ліс, тим більше Netflix рубає дров. Його креативи же давно стало огидно дивитися.

midnight_man 
Свій


З нами з: 13.10.09
Востаннє: 07.08.20
Повідомлень: 113

2020-07-29 17:59  
Класний серіал, зайшов на ура! Чекаю на 2й сезон!
Ваш часовий пояс: GMT + 2 Години

Нова тема   Відповісти