Монахиня-воїн (Сезон 1) / Warrior Nun (Season 1) (2020) 720p Ukr/Eng

Нові коментарі

Нова тема   Відповісти
Автор Повідомлення
DniproFilm 
VIP


З нами з: 10.10.18
Востаннє: 31.07.20
Повідомлень: 426

2020-07-14 14:43  
Монахиня-воїн (Сезон 1) / Warrior Nun (Season 1) (2020) 720p Ukr/Eng

Монахиня-воїн (Сезон 1) / Warrior Nun (Season 1) (2020) 720p Ukr/Eng


Жанр: бойовик, драма, фентезі
Країна: США


Кінокомпанія / телеканал: Netflix, Fresco Film Services, Reality Distortion Field

Режисер: Саймон Баррі
Актори/ролі озвучують: Альба Баптиста, Тойя Тернер, Крістіна Тонтері-Янг, Лорена Андреа, Сільвія Де Фанті, Трістан Уллоа, Текла Рютен, Олівія Делькан, Жоакім ді Алмейда та інші

Сюжет:
Сюжет серіалу розповість про молоду дівчину, що прокинулася в морзі і була втягнута в давню боротьбу між силами добра і зла. Вона потрапляє в "Орден хрестоподібного меча" — таємне товариство монахинь-воїнів, що присягнулися захищати світ. Головній героїні належить поєднати життя дівчини-підлітка та обраній.


Тривалість: 1 серія: ~ 45 хв. (цілком серій: 10)
Перелік серій

01. Psalm 46:5
02. Proverbs 31:25
03. Ephesians 6:11
04. Ecclesiasticus 26:9-10
05. Matthew 7:13
06. Isaiah 30:20-21
07. Ephesians 4:22-24
08. Proverbs 14:1
09. 2 Corinthians 10:4
10. Revelation 2:10
Якість:
Відео:
кодек:
розмір кадру: 1280x640
бітрейт: ~4000 кб/с

Аудіо # 1:
мова: українська
переклад: багатоголосий закадровий
кодек: 5.1
бітрейт: 384 кб/с

Аудіо # 2:
мова: англійська
переклад: оригінал
кодек: Е- 5.1
бітрейт: 784 кб/с

Субтитри: англійська

Джерело озвучення:
DniproFilm
Info

Video
ID : 1
Format : AVC
Format/Info : Advanced Video Codec
Format profile : [email protected]
Format settings : CABAC / 4 Ref Frames
Format settings, CABAC : Yes
Format settings, Reference : 4 frames
Codec ID : V_MPEG4/ISO/AVC
Duration : 50 min 57 s
Bit rate : 3 814 kb/s
Width : 1 280 pixels
Height : 640 pixels
Display aspect ratio : 2.000
Frame rate mode : Constant
Frame rate : 23.976 (24000/1001) FPS
Color space : YUV
Chroma subsampling : 4:2:0
Bit depth : 8 bits
Scan type : Progressive
Bits/(Pixel*Frame) : 0.194
Stream size : 1.36 GiB (77%)
Language : English
Default : Yes
Forced : No
Color range : Limited
Color primaries : BT.709
Transfer characteristics : BT.709
Matrix coefficients : BT.709

Audio #1
ID : 2
Format : AC-3
Format/Info : Audio Coding 3
Commercial name : Dolby Digital
Codec ID : A_AC3
Duration : 50 min 57 s
Bit rate mode : Constant
Bit rate : 384 kb/s
Channel(s) : 6 channels
Channel layout : L R C LFE Ls Rs
Sampling rate : 48.0 kHz
Frame rate : 31.250 FPS (1536 SPF)
Compression mode : Lossy
Stream size : 140 MiB (8%)
Title : DniproFilm
Language : Ukrainian
Service kind : Complete Main
Default : Yes
Forced : No

Audio #2
ID : 3
Format : E-AC-3 JOC
Format/Info : Enhanced AC-3 with Joint Object Coding
Commercial name : Dolby Digital Plus with Dolby Atmos
Codec ID : A_EAC3
Duration : 50 min 57 s
Bit rate mode : Constant
Bit rate : 768 kb/s
Channel(s) : 6 channels
Channel layout : L R C LFE Ls Rs
Sampling rate : 48.0 kHz
Frame rate : 31.250 FPS (1536 SPF)
Compression mode : Lossy
Stream size : 280 MiB (15%)
Language : English
Service kind : Complete Main
Default : No
Forced : No
Complexity index : 16
Number of dynamic objects : 15
Bed channel count : 1 channel
Bed channel configuration : LFE

Text
ID : 4
Format : UTF-8
Codec ID : S_TEXT/UTF8
Codec ID/Info : UTF-8 Plain Text
Duration : 46 min 38 s
Bit rate : 50 b/s
Count of elements : 585
Stream size : 17.3 KiB (0%)
Language : English
Default : No
Forced : No
Скріншоти




Авторський реліз (завантажувати можна без реєстрації)
 Трекер:    Зареєстрований   

Завантажити / скачати серіал українською



відео для новачків



 Зареєстрований:   2020-07-21 22:23
 Розмір:   14.99 GB 
 Оцінка серіалу:   8.2/10 (Голосів: 6)
   
DniproFilm 
VIP


З нами з: 10.10.18
Востаннє: 31.07.20
Повідомлень: 426

2020-07-21 22:25  
Оновлено. Додано 5-10 серії (фінал).


Додано через 52 хвилини 9 секунд:

Оновлено. Змінено 2 серію (виправлено звук).

Dr.S 
Свій


З нами з: 30.05.17
Востаннє: 07.08.20
Повідомлень: 140

2020-08-02 18:08  
в 4-й серії українська доріжка виставлена 2-ю і не основна
Аудіо #1
Ідентифікатор : 2
Формат : E-AC-3 JOC
Формат/Відомості : Enhanced AC-3 with Joint Object Coding
Комерційна назва : Dolby Digital Plus with Dolby Atmos
Ідентифікатор кодеку : A_EAC3
Тривалість : 44 хв. 23 сек.
Режим розрахунку бітрейта : Постійний (CBR)
Бітрейт : 768 Кбіт/сек
Кількість каналів : 6 канал(-и,-ів)
ChannelLayout : L R C LFE Ls Rs
Частота дискретизації : 48.0 кГц
Частота кадрів : 31.250 кадр/сек (1536 SPF)
Тип стиснення : Із втратами
Розмір потоку : 244 МіБ (16%)
Заголовок : DniproFilm
Мова : Ukrainian
ServiceKind/String : Complete Main
Default : Так
Forced : Ні
ComplexityIndex : 16
NumberOfDynamicObjects : 15
BedChannelCount/String : 1 канал
BedChannelConfiguration : LFE

Аудіо #2
Ідентифікатор : 4
Формат : AC-3
Формат/Відомості : Audio Coding 3
Комерційна назва : Dolby Digital
Ідентифікатор кодеку : A_AC3
Тривалість : 44 хв. 23 сек.
Режим розрахунку бітрейта : Постійний (CBR)
Бітрейт : 384 Кбіт/сек
Кількість каналів : 6 канал(-и,-ів)
ChannelLayout : L R C LFE Ls Rs
Частота дискретизації : 48.0 кГц
Частота кадрів : 31.250 кадр/сек (1536 SPF)
Тип стиснення : Із втратами
Розмір потоку : 122 МіБ (8%)
Мова : English
ServiceKind/String : Complete Main
Default : Ні
Forced : Ні
вочевидь доріжки переплутали - оригінальну доріжку Dolby Digital Plus with Dolby Atmos назвали українською і виставили основною

Ваш часовий пояс: GMT + 2 Години

Нова тема   Відповісти