Аве, Цезар! / Хай живе Цезар! / Hail, Caesar! (2016) Remux 1080p Ukr/Eng | Sub Ukr/Eng

Нові коментарі

Нова тема   Відповісти
Автор Повідомлення
Anonymous 







2020-07-14 12:48  
AVI | AVC | 720p | 1080p | Remux 1080p

Аве, Цезар! / Хай живе Цезар! / Hail, Caesar! (2016) Remux 1080p Ukr/Eng | Sub Ukr/Eng


Аве, Цезар! / Хай живе Цезар! / Hail, Caesar! (2016) Remux 1080p Ukr/Eng | Sub Ukr/Eng


Жанр: комедія, драма, музика
Країна: США, Велика Британія, Японія



Кіностудія / кінокомпанія: Working Title Films, Dentsu, Mike Zoss Productions
Режисери: Ітан Коен, Джоел Коен
Актори: Джош Бролін, Джордж Клуні, Рейф Файнс, Скарлет Йохансон, Тільда Свінтон, Ченінґ Татум, Френсіс Макдорман, Джона Хілл та інші

Сюжет:
Голлівуд — імперія блиску, розкоші і гріховності. Тут мешкають кумири мільйонів. Що не день — бенкет. І ось одного разу в Голлівуді зникає виконавець головної ролі у фільмі «Хай живе Цезар!». Ані дружина, ані численні коханки не знають, де ж він подівся. А продюсера студії чекає складний день, адже він повинен знайти зірку і повернути на знімальний майданчик раніше за репортерів.


Перекладено та озвучено ТО "Цікава Ідея" за підтримки fishMD


Тривалість: 01:46:06
Якість: Blu-Ray Remux 1080p

Відео:
кодек:
розмір кадру: 1920 x 1080
бітрейт: ~34600 кб/с

Аудіо # 1:
мова: українська | "Цікава Ідея"
переклад: професійний багатоголосий закадровий
кодек: 5.1
бітрейт: 448 кб/с

Аудіо # 2:
мова: англійська
переклад: оригінал
кодек: -HD Master 5.1
бітрейт: 3604 кб/с

Субтитри # 1: [Пісні, Forced]
мова: українська
тип: програмні (м'які)
формат: *.srt

Субтитри # 2: [Full]
мова: українська
тип: програмні (м'які)
формат: *.srt

Субтитри # 3: [Full, SDH, SDH Colored]
мова: англійська
тип: програмні (м'які)
формат: *.srt
Info
Код:
General
Complete name                            : Hail, Caesar! (2016) Blu-Ray Remux 1080p [Ukr,Eng sub.Ukr,Eng] [Цікава Ідея].
Format                                   :
Format version                           : Version 4
File size                                : 28.6 GiB
Duration                                 : 1 h 46 min
Overall bit rate mode                    : Variable
Overall bit rate                         : 38.6 Mb/s
Movie name                               : Аве, Цезар! / Хай живе Цезар! / Hail, Caesar! (2016)
Encoded date                             : UTC 2020-07-14 09:05:08
Writing application                      : v30.1.0 ('Forever And More') 64-bit
Writing library                          : libebml v1.3.6 + v1.4.9
Cover                                    : Yes
Attachments                              : cover.png

Video
ID                                       : 1
Format                                   : AVC
Format/Info                              : Advanced Video Codec
Format profile                           : [email protected]
Format settings                          : CABAC / 4 Ref Frames
Format settings, CABAC                   : Yes
Format settings, RefFrames               : 4 frames
Codec ID                                 : V_MPEG4/ISO/AVC
Duration                                 : 1 h 46 min
Bit rate mode                            : Variable
Bit rate                                 : 34.6 Mb/s
Maximum bit rate                         : 36.4 Mb/s
Width                                    : 1 920 pixels
Height                                   : 1 080 pixels
Display aspect ratio                     : 16:9
Frame rate mode                          : Constant
Frame rate                               : 23.976 (24000/1001) FPS
Color space                              : YUV
Chroma subsampling                       : 4:2:0
Bit depth                                : 8 bits
Scan type                                : Progressive
Bits/(Pixel*Frame)                       : 0.695
Stream size                              : 25.6 GiB (89%)
Language                                 : English
Default                                  : Yes
Forced                                   : No

Audio #1
ID                                       : 2
Format                                   : AC-3
Format/Info                              : Audio Coding 3
Commercial name                          : Dolby Digital
Codec ID                                 : A_AC3
Duration                                 : 1 h 46 min
Bit rate mode                            : Constant
Bit rate                                 : 448 kb/s
Channel(s)                               : 6 channels
Channel layout                           : L R C LFE Ls Rs
Sampling rate                            : 48.0 kHz
Frame rate                               : 31.250 FPS (1536 SPF)
Bit depth                                : 16 bits
Compression mode                         : Lossy
Stream size                              : 340 MiB (1%)
Title                                    : 5.1 | 448
Language                                 : Ukrainian
Service kind                             : Complete Main
Default                                  : Yes
Forced                                   : No

Audio #2
ID                                       : 3
Format                                   : XLL
Format/Info                              : Digital Theater Systems
Commercial name                          : -HD Master Audio
Codec ID                                 : A_DTS
Duration                                 : 1 h 46 min
Bit rate mode                            : Variable
Bit rate                                 : 3 604 kb/s
Channel(s)                               : 6 channels
Channel layout                           : C L R Ls Rs LFE
Sampling rate                            : 48.0 kHz
Frame rate                               : 93.750 FPS (512 SPF)
Bit depth                                : 24 bits
Compression mode                         : Lossless
Stream size                              : 2.67 GiB (9%)
Title                                    : -HD Master 5.1 | 3604
Language                                 : English
Default                                  : No
Forced                                   : No

Text #1
ID                                       : 4
Format                                   : UTF-8
Codec ID                                 : S_TEXT/UTF8
Codec ID/Info                            : UTF-8 Plain Text
Duration                                 : 1 h 26 min
Bit rate                                 : 1 b/s
Count of elements                        : 16
Stream size                              : 751 Bytes (0%)
Title                                    : Forced
Language                                 : Ukrainian
Default                                  : Yes
Forced                                   : No

Text #2
ID                                       : 5
Format                                   : UTF-8
Codec ID                                 : S_TEXT/UTF8
Codec ID/Info                            : UTF-8 Plain Text
Duration                                 : 28 min 23 s
Bit rate                                 : 11 b/s
Count of elements                        : 48
Stream size                              : 2.47 KiB (0%)
Title                                    : пісні
Language                                 : Ukrainian
Default                                  : No
Forced                                   : No

Text #3
ID                                       : 6
Format                                   : UTF-8
Codec ID                                 : S_TEXT/UTF8
Codec ID/Info                            : UTF-8 Plain Text
Duration                                 : 1 h 38 min
Bit rate                                 : 128 b/s
Count of elements                        : 1601
Stream size                              : 92.5 KiB (0%)
Title                                    : Full
Language                                 : Ukrainian
Default                                  : No
Forced                                   : No

Text #4
ID                                       : 7
Format                                   : UTF-8
Codec ID                                 : S_TEXT/UTF8
Codec ID/Info                            : UTF-8 Plain Text
Duration                                 : 1 h 38 min
Bit rate                                 : 78 b/s
Count of elements                        : 1793
Stream size                              : 56.7 KiB (0%)
Title                                    : Full
Language                                 : English
Default                                  : No
Forced                                   : No

Text #5
ID                                       : 8
Format                                   : UTF-8
Codec ID                                 : S_TEXT/UTF8
Codec ID/Info                            : UTF-8 Plain Text
Duration                                 : 1 h 38 min
Bit rate                                 : 88 b/s
Count of elements                        : 1912
Stream size                              : 63.8 KiB (0%)
Title                                    : SDH
Language                                 : English
Default                                  : No
Forced                                   : No

Text #6
ID                                       : 9
Format                                   : UTF-8
Codec ID                                 : S_TEXT/UTF8
Codec ID/Info                            : UTF-8 Plain Text
Duration                                 : 1 h 38 min
Bit rate                                 : 100 b/s
Count of elements                        : 1912
Stream size                              : 72.5 KiB (0%)
Title                                    : SDH-COLORED
Language                                 : English
Default                                  : No
Forced                                   : No

Menu
00:00:00.000                             : en:Chapter 1
00:03:59.322                             : en:Chapter 2
00:09:38.369                             : en:Chapter 3
00:12:58.736                             : en:Chapter 4
00:17:34.178                             : en:Chapter 5
00:22:29.223                             : en:Chapter 6
00:29:55.961                             : en:Chapter 7
00:35:37.427                             : en:Chapter 8
00:41:49.090                             : en:Chapter 9
00:47:09.618                             : en:Chapter 10
00:50:40.746                             : en:Chapter 11
00:57:25.108                             : en:Chapter 12
01:01:17.424                             : en:Chapter 13
01:07:21.913                             : en:Chapter 14
01:14:02.229                             : en:Chapter 15
01:17:41.365                             : en:Chapter 16
01:22:38.704                             : en:Chapter 17
01:28:54.412                             : en:Chapter 18
01:33:50.959                             : en:Chapter 19
01:39:26.419                             : en:Chapter 20
Скріншоти




Озвучено творчим об'єднанням:
Ролі озвучили: Семен Птаха, Юлія Малахова, Олексій Сафін, Ганна Квочкіна, Андрій Корзаченко, Олександр Чернов та Матвій Ніколаєв.


Авторський реліз (завантажувати можна без реєстрації)
 Трекер:    Зареєстрований   

Завантажити / скачати фільм українською



відео для новачків



 Зареєстрований:   2020-07-14 12:48
 Розмір:   28.63 GB 
 Оцінка фільму:   7.6/10 (Голосів: 8)
   
Anonymous 







2020-08-01 19:29  
Гарний фільм.
Ваш часовий пояс: GMT + 2 Години

Нова тема   Відповісти