Грейхаунд: Битва за Атлантику / Greyhound (2020) AVC Eng | sub Ukr/Eng

Нові коментарі

Нова тема   Відповісти
Автор Повідомлення
Anonymous 







2020-07-14 11:18  
Грейхаунд: Битва за Атлантику / Greyhound (2020) AVC Eng | sub Ukr/Eng


Жанр: екшн, драма, історичний, воєнний, військовий
Країна: США, Канада, Китай



Кінокомпанія: Columbia Pictures, Stage 6 Films, Zhengfu Pictures, BRON Studios, Creative Artists Agency, Creative Wealth Media Finance, FilmNation Entertainment, Playtone, Sycamore Pictures
Режисер: Аарон Шнайдер / Aaron Schneider
Актори: Том Генкс / Tom Hanks, Елізабет Шу / Elisabeth Shue, Стівен Грем / Stephen Graham, Карл Глусман / Karl Glusman, Мануель Рульфо / Manuel Garcia-Rulfo, Том Бріттні / Tom Brittney, Девін Друїд / Devin Druid, Роб Морґан / Rob Morgan, Девід Мальдонадо / David Maldonado, Адам Алдекс / Adam Aalderks, Майкл Бенц / Michael Benz та інші.

Сюжет:
Том Генкс у видовищній історичній екшн-драмі, історії справжньої відваги і сили духу! У розпал Другої світової війни офіцера морського флоту призначають капітаном есмінця "Ґрейхаунд". Перше завдання нового командира – провести 37 кораблів Північною Атлантикою, яка нашпигована підводними човнами ворога. Щоб успішно завершити місію, зберегти судна і екіпаж цілими, капітан перш за все повинен виграти найбільшу битву – з власними страхами.

За мотивами реальних подій та роману "Добрий пастир / The Good Shepherd" С.С.Форестера.
Офіційний український трейлер:


Рейтинг MPAA: PG-13 - дітям до 13 років перегляд не бажаний
Вікова категорія: 12+

Тривалість: 01:31:42
Якість: AVC
Відео:
кодек:
розмір кадру: 1024x432
бітрейт: 2268 кб/с

Аудіо:*
мова: англійська
переклад: оригінал
кодек: 5.1
бітрейт: 448 кб/с

Субтитри # 1:
мова: українська
тип: програмні (м'які)
формат: *.srt
переклад: Анастасія Жищинська

Субтитри # 2-3:
мова: англійська (повні, SDH)
тип: програмні (м'які)
формат: *.srt
Info
Код:
General
Complete name                            : Greyhound (2020) AVC [Eng] [Hurtom].
Format                                   :
Format version                           : Version 4
File size                                : 1.74 GiB
Duration                                 : 1 h 31 min
Overall bit rate                         : 2 719 kb/s
Movie name                               : Грейхаунд: Битва за Атлантику / Greyhound (2020)
Encoded date                             : UTC 2020-07-14 08:50:07
Writing application                      : v30.1.0 ('Forever And More') 64-bit
Writing library                          : libebml v1.3.6 + v1.4.9
Cover                                    : Yes
Attachments                              : cover.jpg

Video
ID                                       : 1
Format                                   : AVC
Format/Info                              : Advanced Video Codec
Format profile                           : [email protected]
Format settings                          : CABAC / 11 Ref Frames
Format settings, CABAC                   : Yes
Format settings, RefFrames               : 11 frames
Codec ID                                 : V_MPEG4/ISO/AVC
Duration                                 : 1 h 31 min
Bit rate                                 : 2 268 kb/s
Width                                    : 1 024 pixels
Height                                   : 432 pixels
Display aspect ratio                     : 2.40:1
Frame rate mode                          : Constant
Frame rate                               : 23.976 (24000/1001) FPS
Color space                              : YUV
Chroma subsampling                       : 4:2:0
Bit depth                                : 8 bits
Scan type                                : Progressive
Bits/(Pixel*Frame)                       : 0.214
Stream size                              : 1.45 GiB (83%)
Writing library                          : core 148 r2638 7599210
Encoding settings                        : cabac=1 / ref=11 / deblock=1:2:2 / analyse=0x3:0x113 / me=umh / subme=10 / psy=1 / psy_rd=1.00:0.20 / mixed_ref=1 / me_range=48 / chroma_me=1 / trellis=2 / 8x8dct=1 / cqm=0 / deadzone=21,11 / fast_pskip=1 / chroma_qp_offset=-1 / threads=6 / lookahead_threads=1 / sliced_threads=0 / nr=0 / decimate=1 / interlaced=0 / bluray_compat=0 / constrained_intra=0 / bframes=3 / b_pyramid=2 / b_adapt=2 / b_bias=0 / direct=3 / weightb=1 / open_gop=0 / weightp=2 / keyint=240 / keyint_min=23 / scenecut=40 / intra_refresh=0 / rc_lookahead=40 / rc=2pass / mbtree=1 / bitrate=2268 / ratetol=1.0 / qcomp=0.60 / qpmin=0 / qpmax=69 / qpstep=4 / cplxblur=20.0 / qblur=0.5 / vbv_maxrate=50000 / vbv_bufsize=62500 / nal_hrd=none / filler=0 / ip_ratio=1.40 / aq=1:1.00
Default                                  : Yes
Forced                                   : No

Audio
ID                                       : 2
Format                                   : AC-3
Format/Info                              : Audio Coding 3
Commercial name                          : Dolby Digital
Codec ID                                 : A_AC3
Duration                                 : 1 h 31 min
Bit rate mode                            : Constant
Bit rate                                 : 448 kb/s
Channel(s)                               : 6 channels
Channel layout                           : L R C LFE Ls Rs
Sampling rate                            : 48.0 kHz
Frame rate                               : 31.250 FPS (1536 SPF)
Bit depth                                : 16 bits
Compression mode                         : Lossy
Stream size                              : 294 MiB (16%)
Title                                    : 5.1 | 448
Language                                 : English
Service kind                             : Complete Main
Default                                  : Yes
Forced                                   : No

Text #1
ID                                       : 3
Format                                   : UTF-8
Codec ID                                 : S_TEXT/UTF8
Codec ID/Info                            : UTF-8 Plain Text
Duration                                 : 1 h 30 min
Bit rate                                 : 88 b/s
Count of elements                        : 1095
Stream size                              : 59.2 KiB (0%)
Title                                    : Full
Language                                 : Ukrainian
Default                                  : Yes
Forced                                   : No

Text #2
ID                                       : 4
Format                                   : UTF-8
Codec ID                                 : S_TEXT/UTF8
Codec ID/Info                            : UTF-8 Plain Text
Duration                                 : 1 h 20 min
Bit rate                                 : 65 b/s
Count of elements                        : 1033
Stream size                              : 38.3 KiB (0%)
Title                                    : Full
Language                                 : English
Default                                  : No
Forced                                   : No

Text #3
ID                                       : 5
Format                                   : UTF-8
Codec ID                                 : S_TEXT/UTF8
Codec ID/Info                            : UTF-8 Plain Text
Duration                                 : 1 h 20 min
Bit rate                                 : 71 b/s
Count of elements                        : 1105
Stream size                              : 41.8 KiB (0%)
Title                                    : SDH
Language                                 : English
Default                                  : No
Forced                                   : No
Скріншоти




Подяка за постер : Electroz
Джерело: &
Особиста оцінка: 8 - мені сподобалося
* у випадку появи українського озвучення/дубляжу реліз буде оновлено.


 Трекер:    Зареєстрований   

Завантажити / скачати фільм українською



відео для новачків



 Зареєстрований:   2020-07-14 11:18
 Розмір:   1.74 GB 
 Оцінка фільму:   8.9/10 (Голосів: 36)
   
don pedro 
Попереджень: 1
Попереджень: 1 


З нами з: 29.06.11
Востаннє: 03.12.20
Повідомлень: 18233

2020-07-14 13:25  
Хороший фільм з чудовим Томом Хенксом у головній ролі. І не затягнутий по часу. Шкода. що не показували у кінотеатрах.
Що є правдою, а що вигадкою у фільмі:
https://screenrant.com/greyhound-movie-true-story-battle-atlantic-wwii-explained/

Arx1meD_CrackeR 
Частий відвідувач


З нами з: 17.04.13
Востаннє: 02.12.20
Повідомлень: 29

2020-07-15 20:28  
найс мля - 3 безкорисних релізи і всі з сабами - ви мазахісти ???
don pedro 
Попереджень: 1
Попереджень: 1 


З нами з: 29.06.11
Востаннє: 03.12.20
Повідомлень: 18233

2020-07-15 21:51  
Про роботу над фільмом розповідають Том Хенкс та режисер:


qruq 
Новенький


З нами з: 04.11.14
Востаннє: 21.11.20
Повідомлень: 2

2020-07-19 16:45  
Arx1meD_CrackeR підтримую!
DDBj 
VIP


З нами з: 09.01.12
Востаннє: 03.12.20
Повідомлень: 744

2020-07-19 17:12  
Arx1meD_CrackeR написано:
найс мля - 3 безкористних релізів і всі з сабами - ви мазахісти ???

З набору слів лише два українською й без помилки: "всі" й "ви". Вчіть мову й вмійте трохи анґументувати думки, бо скоро як шарікові будете спілкуватися. А нижче цей безладний лінґвістичний виблюв хтось "підтримує". Тьху, матері ковінька.

Anonymous 







2020-07-27 20:31  
8 - мені сподобалося
don pedro 
Попереджень: 1
Попереджень: 1 


З нами з: 29.06.11
Востаннє: 03.12.20
Повідомлень: 18233

2020-08-10 23:13  
Рецензія на цей фільм (з якою я не згідний), але яка має право на існування:
https://www.kinofilms.ua/ukr/news/21387/

ТимановаС 
Забанено
Забанено


З нами з: 27.08.20
Востаннє: 29.08.20
Повідомлень: 2

2020-08-29 20:38  
[спам видалено]


спамер, видано igor911
Breton 
Частий відвідувач


З нами з: 26.05.12
Востаннє: 02.12.20
Повідомлень: 36

2020-09-11 08:22  
don pedro
Таке враження що цю рецензію писала якась ображена пацифістка-феміністка.

Фільм сподобався, хоча люди , які знаються на морському бою, дуже розкритикували цей фільм за неправдоподібність і ляпи. Але ,так як я не знаю тих нюансів, мені сподобався)

darth_grey 
Новенький


З нами з: 27.03.16
Востаннє: 30.11.20
Повідомлень: 15

2020-11-01 14:25  
Breton

Щодо критики. Дуже сильно верещали з за парєбріку - такий собі клім жуков, корєш мусора гобліна, він упоротий совок і тому будь який фільм про другу світову буде ним передбачувано обгажений. А щодо тої рецензентки то, підозрюю, вона чекала жвачки по типу "Перл Гарбора", де всі бігають, кудись стріляють і всюди спалахи тонн бензину. На мою думку фільм дуже уважний до деталей і художнє перебільшення там лише для драматизації сюжету (як наприклад торпеда, яка відскочила від борту замість розірватися). Замість того щоб зводити декорації - використали корабель-музей USS Kidd що тільки додало плюсів антуражу.

don pedro 
Попереджень: 1
Попереджень: 1 


З нами з: 29.06.11
Востаннє: 03.12.20
Повідомлень: 18233

2020-11-01 14:32  
darth_grey написано:
як наприклад торпеда, яка відскочила від борту замість розірватися

Взагалі-то, з німецькими торпедами таке траплялось постійно. На німецькому флоті через це був великий рейвах, когось навіть судили.

Breton написано:
Таке враження що цю рецензію писала якась ображена пацифістка-феміністка.

Фільм і справді ненайкращий, але цілком гідний. До того ж, чудовий музичний супровід (а для мене це завжди дуже важливо).

Ваш часовий пояс: GMT + 2 Години

Нова тема   Відповісти