Вибач, хочу з тобою одружитися / Scusa ma ti voglio sposare (2010) AVC 2xUkr/Ita

Нові коментарі

Нова тема   Відповісти
Автор Повідомлення
Arsenfpu 
Відео Гуртом - фільмокрай
Відео Гуртом - фільмокрай


З нами з: 30.04.09
Востаннє: 05.08.20
Повідомлень: 7115

2020-07-13 23:52  
Вибач, хочу з тобою одружитися / Scusa ma ti voglio sposare (2010) AVC 2xUkr/Ita

Вибач, хочу з тобою одружитися / Scusa ma ti voglio sposare (2010) AVC 2xUkr/Ita


Жанр: мелодрама, романтична комедія
Країна: Італія



Кінокомпанія: Medusa Film, Arella Film
Режисер: Федеріко Моччіа
Актори: Рауль Бова, Мікела Кваттрочіокке, Лука Анджелетті, Франческа Антонеллі, Чечилія Даззи, Ігнаціо Оліва, Франческа Ферраццо та інші

Сюжет:
Алекс і Нікі, незважаючи на різницю у віці, вирішили одружитися. Але чим ближче день весілля, тим частіше у Нікі виникають сумніви з приводу цієї події. Та й одружені друзі Алекса не хочуть, щоб він «повісив собі на шию камінь», як зробили вони самі. Адже сімейне життя - штука складна, і схожа на пазли, які потрібно обдумано складати. Чи зможуть Алекс і Нікі зважитися на такий вчинок?


Тривалість: 01:49:06
Якість:
Відео:
кодек:
розмір кадру: 1 024 х 432
бітрейт: 2 499 кб/с

Аудіо # 1:
мова: українська
переклад: професійний дубльований
кодек: 5.1
бітрейт: 448 кб/с

Аудіо # 2:
мова: українська
переклад: багатоголосий закадровий
кодек: 2.0
бітрейт: 192 кб/с

Аудіо # 3:
мова: італійська
переклад: оригінал
кодек: 2.0
бітрейт: 192 кб/с
Скріншоти














Про файл
General
Unique ID : 220315502975809485808097617424580979061 (0xA5BF38F1C99A7B655581F0BFC5C9A975)
Complete name : C:\Scusa ma ti voglio sposare (2010) [2xUkr,Ita] AVC [Hurtom].
Format :
Format version : Version 4 / Version 2
File size : 2.54 GiB
Duration : 1 h 49 min
Overall bit rate : 3 327 kb/s
Movie name : Вибач, хочу з тобою одружитися / Scusa ma ti voglio sposare (2010)
Encoded date : UTC 2020-07-13 20:24:27
Writing application : v21.0.0 ('Tardigrades Will Inherit The Earth') 32-bit
Writing library : libebml v1.3.5 + v1.4.8
Cover : Yes
Attachments : cover.jpg

Video
ID : 1
Format : AVC
Format/Info : Advanced Video Codec
Format profile : [email protected]
Format settings, CABAC : Yes
Format settings, ReFrames : 4 frames
Codec ID : V_MPEG4/ISO/AVC
Duration : 1 h 48 min
Bit rate : 2 499 kb/s
Width : 1 024 pixels
Height : 432 pixels
Display aspect ratio : 2.40:1
Frame rate mode : Constant
Frame rate : 24.000 FPS
Color space : YUV
Chroma subsampling : 4:2:0
Bit depth : 8 bits
Scan type : Progressive
Bits/(Pixel*Frame) : 0.235
Stream size : 1.90 GiB (75%)
Writing library : core 157 r2935 545de2f
Encoding settings : cabac=1 / ref=3 / deblock=1:-1:-1 / analyse=0x3:0x113 / me=hex / subme=7 / psy=1 / psy_rd=1.00:0.15 / mixed_ref=1 / me_range=16 / chroma_me=1 / trellis=1 / 8x8dct=1 / cqm=0 / deadzone=21,11 / fast_pskip=1 / chroma_qp_offset=-3 / threads=12 / lookahead_threads=2 / sliced_threads=0 / nr=0 / decimate=1 / interlaced=0 / bluray_compat=0 / constrained_intra=0 / bframes=3 / b_pyramid=2 / b_adapt=1 / b_bias=0 / direct=1 / weightb=1 / open_gop=0 / weightp=2 / keyint=240 / keyint_min=24 / scenecut=40 / intra_refresh=0 / rc_lookahead=40 / rc=2pass / mbtree=1 / bitrate=2499 / ratetol=1.0 / qcomp=0.60 / qpmin=0 / qpmax=69 / qpstep=4 / cplxblur=20.0 / qblur=0.5 / ip_ratio=1.40 / aq=1:1.00
Default : Yes
Forced : No

Audio #1
ID : 2
Format : AC-3
Format/Info : Audio Coding 3
Mode extension : CM (complete main)
Format settings, Endianness : Big
Codec ID : A_AC3
Duration : 1 h 48 min
Bit rate mode : Constant
Bit rate : 448 kb/s
Channel(s) : 6 channels
Channel positions : Front: L C R, Side: L R, LFE
Sampling rate : 48.0 kHz
Frame rate : 31.250 FPS (1536 spf)
Compression mode : Lossy
Stream size : 349 MiB (13%)
Language : Ukrainian
Default : Yes
Forced : Yes

Audio #2
ID : 3
Format : AC-3
Format/Info : Audio Coding 3
Mode extension : CM (complete main)
Format settings, Endianness : Big
Codec ID : A_AC3
Duration : 1 h 49 min
Bit rate mode : Constant
Bit rate : 192 kb/s
Channel(s) : 2 channels
Channel positions : Front: L R
Sampling rate : 48.0 kHz
Frame rate : 31.250 FPS (1536 spf)
Compression mode : Lossy
Stream size : 150 MiB (6%)
Title : К1
Language : Ukrainian
Default : No
Forced : No

Audio #3
ID : 4
Format : AC-3
Format/Info : Audio Coding 3
Mode extension : CM (complete main)
Format settings, Endianness : Big
Codec ID : A_AC3
Duration : 1 h 49 min
Bit rate mode : Constant
Bit rate : 192 kb/s
Channel(s) : 2 channels
Channel positions : Front: L R
Sampling rate : 48.0 kHz
Frame rate : 31.250 FPS (1536 spf)
Compression mode : Lossy
Stream size : 150 MiB (6%)
Language : Italian
Default : No
Forced : No
Джерело:
За українські доріжки дякую п. Vasua95, POMEO, yura-pro
Особиста оцінка: не дивився


 Трекер:    Зареєстрований   

Завантажити / скачати фільм українською



відео для новачків



 Зареєстрований:   2020-07-13 23:52
 Розмір:   2.54 GB 
 Оцінка фільму:   7.9/10 (Голосів: 9)
   
Ваш часовий пояс: GMT + 2 Години

Нова тема   Відповісти