Індіанська королева та конкістадор (Сезон 1, Серії 1-10) / La Reina de Indias y el Conquistador (Season 1) (2020) 1080p Ukr/Spa

Нові коментарі

Нова тема   Відповісти
Автор Повідомлення
BaibaKoTV 
Свій


З нами з: 01.12.16
Востаннє: 03.08.20
Повідомлень: 50

2020-07-13 21:49  

Індіанська королева та конкістадор (Сезон 1) / La Reina de Indias y el Conquistador (Season 1) (2020) 1080p Ukr/Spa

Індіанська королева та конкістадор (Сезон 1, Серії 1-10) / La Reina de Indias y el Conquistador (Season 1) (2020) 1080p Ukr/Spa


Жанр: історичний, драма
Країна: Колумбія



Режисер: Каміло Вілламісар, Хуан Карлос Васкес
Актори: Еммануель Еспарса, Ессінед Апонте, Мануель Наварро та інші

Сюжет:
Це історія Каталіни, корінної жінки, яка віддала свою душу, серце та життя завойовнику Педро де Ередії. Це історія про їхнє кохання, їхню роль у заснуванні міста Картахена-де-Індіас (Картахена), про зраду, розбите серце та помсту.


Тривалість: 1 серія: ~50 (цілком серій: 10 з 60)
Перелік серій
Епізод 01 ...Епізод 10
Якість: 1080p
Відео:
кодек:
розмір кадру: 1920x1080
бітрейт: ~4000 кб/с

Аудіо # 1:
мова: українська
переклад: професійний багатоголосий закадровий | BaibaKoTV
кодек: 5.1
бітрейт: 640 кб/с

Аудіо # 2:
мова: іспанська
переклад: оригінал
кодек: 5.1
бітрейт: 640 кб/с
Info
General
Format :
Format version : Version 4 / Version 2
File size : 1.97 GiB
Duration : 48 min 40 s
Overall bit rate : 5 785 kb/s
Encoded date : UTC 2020-07-09 10:46:21
Writing application : v33.0.0 ('A Little Bit of Madness') 64-bit
Writing library : libebml v1.3.7 + v1.5.0

Video
ID : 1
Format : AVC
Format/Info : Advanced Video Codec
Format profile : [email protected]
Format settings : CABAC / 3 Ref Frames
Format settings, CABAC : Yes
Format settings, RefFrames : 3 frames
Codec ID : V_MPEG4/ISO/AVC
Duration : 48 min 39 s
Bit rate : 4 503 kb/s
Width : 1 920 pixels
Height : 1 080 pixels
Display aspect ratio : 16:9
Frame rate mode : Constant
Frame rate : 23.976 (24000/1001) FPS
Color space : YUV
Chroma subsampling : 4:2:0
Bit depth : 8 bits
Scan type : Progressive
Bits/(Pixel*Frame) : 0.091
Stream size : 1.53 GiB (78%)
Default : Yes
Forced : No

Audio #1
ID : 2
Format : AC-3
Format/Info : Audio Coding 3
Codec ID : A_AC3
Duration : 48 min 40 s
Bit rate mode : Constant
Bit rate : 640 kb/s
Channel(s) : 6 channels
Channel positions : Front: L C R, Side: L R, LFE
Sampling rate : 48.0 kHz
Frame rate : 31.250 FPS (1536 SPF)
Bit depth : 16 bits
Compression mode : Lossy
Delay relative to video : -83 ms
Stream size : 223 MiB (11%)
Language : Ukrainian
Service kind : Complete Main
Default : Yes
Forced : No

Audio #2
ID : 3
Format : E-AC-3
Format/Info : Enhanced Audio Coding 3
Codec ID : A_EAC3
Duration : 48 min 40 s
Bit rate mode : Constant
Bit rate : 640 kb/s
Channel(s) : 6 channels
Channel positions : Front: L C R, Side: L R, LFE
Sampling rate : 48.0 kHz
Frame rate : 187.500 FPS (256 SPF)
Compression mode : Lossy
Delay relative to video : -83 ms
Stream size : 223 MiB (11%)
Language : Spanish
Service kind : Complete Main
Default : No
Forced : No
Скріншоти


Авторський реліз (завантажувати можна без реєстрації)
 Трекер:    Зареєстрований   

Завантажити / скачати серіал українською



відео для новачків



 Зареєстрований:   2020-07-27 23:05
 Розмір:   17.37 GB 
 Оцінка серіалу:   10/10 (Голосів: 4)
   
BaibaKoTV 
Свій


З нами з: 01.12.16
Востаннє: 03.08.20
Повідомлень: 50

2020-07-15 18:30  
Додано 5-ту серію!

munipet 
VIP


З нами з: 14.04.11
Востаннє: 28.07.20
Повідомлень: 304

2020-07-16 04:55  
можна в менший розмір без ісп доріжки ??
BaibaKoTV 
Свій


З нами з: 01.12.16
Востаннє: 03.08.20
Повідомлень: 50

2020-07-16 21:52  
Додано 6-ту серію!

BaibaKoTV 
Свій


З нами з: 01.12.16
Востаннє: 03.08.20
Повідомлень: 50

2020-07-17 19:19  
Додано 7-му серію!


Додано через 24 хвилини 6 секунд:


| AVC |

BaibaKoTV 
Свій


З нами з: 01.12.16
Востаннє: 03.08.20
Повідомлень: 50

2020-07-25 05:08  
Додано 8-му та 9-ту серії!

BaibaKoTV 
Свій


З нами з: 01.12.16
Востаннє: 03.08.20
Повідомлень: 50

2020-07-27 23:10  
Додано 10-ту серію!

Ваш часовий пояс: GMT + 2 Години

Нова тема   Відповісти