Це кінець / This Is the End (2013) 1080p Ukr/Eng | Sub Ukr/Eng

Нові коментарі

Нова тема   Відповісти
Автор Повідомлення
staf777 
Відео Гуртом - підтримка та поширення
Відео Гуртом - підтримка та поширення


З нами з: 16.11.16
Востаннє: 29.09.20
Повідомлень: 4073

2020-07-13 17:18  
Це кінець / This Is the End (2013) 1080p Ukr/Eng | Sub Ukr/Eng

Це кінець / This Is the End (2013) 1080p Ukr/Eng | Sub Ukr/Eng


Жанр: комедія, фентезі
Країна: США



Кінокомпанія: Columbia Pictures, Point Grey Pictures, Mandate Pictures
Режисер: Сет Роґен, Івен Голдберг
Актори: Сет Роґен, Джей Барушель, Джеймс Франко, Джона Гілл, Крейґ Робінсон, Денні МакБрайд, Майкл Сера, Емма Вотсон, Ченнінґ Тейтум, Крістофер Мінц-Плассе, Ріанна, Пол Радд, Мінді Калінґа, Девід Крамгольц, Мартін Старр, Кевін Гарт

Сюжет:
Джей Барушель приїжджає в Лос-Анджелес, щоб відвідати старого друга і колегу, актора Сета Роґена, який запросив Барушеля на новосілля, яке організовує Джеймс Франко. На не надто пристойну вечірку приїхали багато знаменитостей. Барушелю незручно серед такої кількості людей, він практично не знає особисто таких знаменитостей, як: Джона Гілл, Крістофер Мінц-Плассе, Майкл Сера, Крейґ Робінсон, Емма Вотсон і Ченнінґ Тейтум. Роґен, щоб трохи заспокоїти його, супроводжує його в магазин за сигаретами. У магазині промені синього світла з неба раптом забрали кількох покупців. Перелякані Роґен і Барушель біжать в будинок Франка на тлі вибухів, автомобільних аварій, а також масового хаосу, але на вечірці сині промені нікого не чіпали. Гості не вірять вигадкам Барушеля і оголошують його божевільним, але через кілька секунд чують зовні гуркіт...


Тривалість: 01:46:41
Якість:
Відео:
кодек:
розмір кадру: 1920x802
бітрейт: 9118 кб/с

Аудіо # 1:
мова: українська
переклад: професійний дубльований
кодек: 5.1
бітрейт: 384 кб/с

Аудіо # 2:
мова: англійська
переклад: оригінал
кодек: 5.1
бітрейт: 1509 кб/с

Субтитри:
мова: українська
тип: програмні (м'які)
формат: *.srt

Субтитри:
мова: англійська
тип: програмні (м'які)
формат: *.srt
Info
General
Unique ID : 194740737040896856879204142028848640695 (0x9281B3A1B01525EA95018E36209C32B7)
Complete name : Z:\Фільми в HD\Комедія\This Is the End (2013) 1080p [UKR_ENG] [Hurtom].
Format :
Format version : Version 4
File size : 8.21 GiB
Duration : 1 h 46 min
Overall bit rate : 11.0 Mb/s
Movie name : Це кінець / This Is the End (2013) 1080p [UKR_ENG] [Hurtom]
Encoded date : UTC 2020-07-13 16:09:18
Writing application : v46.0.0 ('No Deeper Escape') 64-bit
Writing library : libebml v1.3.10 + v1.5.2
Cover : Yes
Attachments : cover.jpg

Video
ID : 1
Format : AVC
Format/Info : Advanced Video Codec
Format profile : [email protected]
Format settings : CABAC / 5 Ref Frames
Format settings, CABAC : Yes
Format settings, Reference : 5 frames
Codec ID : V_MPEG4/ISO/AVC
Duration : 1 h 46 min
Bit rate : 9 118 kb/s
Width : 1 920 pixels
Height : 802 pixels
Display aspect ratio : 2.40:1
Frame rate mode : Constant
Frame rate : 23.976 FPS
Color space : YUV
Chroma subsampling : 4:2:0
Bit depth : 8 bits
Scan type : Progressive
Bits/(Pixel*Frame) : 0.247
Stream size : 6.79 GiB (83%)
Title : This.Is.the.End.2013.BluRay.1080p..-CHD
Writing library : core 138 r2356 a1d3d17
Encoding settings : cabac=1 / ref=5 / deblock=1:-3:-3 / analyse=0x3:0x113 / me=umh / subme=10 / psy=1 / psy_rd=1.00:0.05 / mixed_ref=1 / me_range=32 / chroma_me=1 / trellis=2 / 8x8dct=1 / cqm=0 / deadzone=21,11 / fast_pskip=0 / chroma_qp_offset=-2 / threads=18 / lookahead_threads=1 / sliced_threads=0 / nr=0 / decimate=1 / interlaced=0 / bluray_compat=0 / constrained_intra=0 / bframes=4 / b_pyramid=2 / b_adapt=2 / b_bias=0 / direct=3 / weightb=1 / open_gop=0 / weightp=2 / keyint=250 / keyint_min=23 / scenecut=40 / intra_refresh=0 / rc=2pass / mbtree=0 / bitrate=9118 / ratetol=1.0 / qcomp=0.70 / qpmin=0 / qpmax=69 / qpstep=4 / cplxblur=20.0 / qblur=0.5 / ip_ratio=1.40 / pb_ratio=1.30 / aq=2:1.00
Language : English
Default : Yes
Forced : Yes

Audio #1
ID : 2
Format : AC-3
Format/Info : Audio Coding 3
Commercial name : Dolby Digital
Codec ID : A_AC3
Duration : 1 h 46 min
Bit rate mode : Constant
Bit rate : 384 kb/s
Channel(s) : 6 channels
Channel layout : L R C LFE Ls Rs
Sampling rate : 48.0 kHz
Frame rate : 31.250 FPS (1536 SPF)
Compression mode : Lossy
Stream size : 293 MiB (3%)
Title : Dub [Ledoyen, іTunеs], 5.1 384 kbps
Language : Ukrainian
Service kind : Complete Main
Default : Yes
Forced : Yes

Audio #2
ID : 3
Format :
Format/Info : Digital Theater Systems
Codec ID : A_DTS
Duration : 1 h 46 min
Bit rate mode : Constant
Bit rate : 1 509 kb/s
Channel(s) : 6 channels
Channel layout : C L R Ls Rs LFE
Sampling rate : 48.0 kHz
Frame rate : 93.750 FPS (512 SPF)
Bit depth : 24 bits
Compression mode : Lossy
Stream size : 1.12 GiB (14%)
Title : -CORE 1536K ENG
Language : English
Default : No
Forced : No

Text #1
ID : 4
Format : UTF-8
Codec ID : S_TEXT/UTF8
Codec ID/Info : UTF-8 Plain Text
Duration : 1 h 38 min
Bit rate : 104 b/s
Count of elements : 1888
Stream size : 75.4 KiB (0%)
Title : Full
Language : Ukrainian
Default : No
Forced : No

Text #2
ID : 5
Format : UTF-8
Codec ID : S_TEXT/UTF8
Codec ID/Info : UTF-8 Plain Text
Duration : 1 h 38 min
Bit rate : 98 b/s
Count of elements : 2043
Stream size : 71.0 KiB (0%)
Title : Full
Language : English
Default : No
Forced : No

Menu
00:00:00.000 : en:00:00:00.000
00:05:50.392 : en:00:05:50.392
00:12:12.732 : en:00:12:12.732
00:17:37.598 : en:00:17:37.598
00:23:49.011 : en:00:23:49.011
00:29:23.637 : en:00:29:23.637
00:38:27.847 : en:00:38:27.847
00:44:36.716 : en:00:44:36.716
00:49:16.328 : en:00:49:16.328
00:59:15.594 : en:00:59:15.594
01:06:03.001 : en:01:06:03.001
01:12:45.319 : en:01:12:45.319
01:19:24.969 : en:01:19:24.969
01:26:21.343 : en:01:26:21.343
01:33:17.967 : en:01:33:17.967
01:37:41.773 : en:01:37:41.773


Джерело:


 Трекер:    Зареєстрований   

Завантажити / скачати фільм українською



відео для новачків



 Зареєстрований:   2020-07-13 19:21
 Розмір:   8.21 GB 
 Оцінка фільму:   10/10 (Голосів: 6)
   
Інші релізи
   Це кінець / This Is the End (2013) 720p Ukr/Eng | Sub Ukr/Eng 11FrYkT  3 / 0   4.65 GB   2020-07-13 20:05 
   Це кінець / This Is the End (2013) AVC Ukr/Eng | Sub Ukr/Eng Gelios  12 / 0   1.88 GB   2020-07-12 21:17 
   Це кінець / This Is the End (2013) AngryBirdsUA  3 / 0   1.45 GB   2015-12-04 20:33 
bot 
робот


З нами з: 30.09.07
Востаннє: 26.05.05
Повідомлень: 25654

2020-07-13 17:18  
Тему перенесено з Фільми в HD до форуму Анонси релізів


staf777

bot 
робот


З нами з: 30.09.07
Востаннє: 26.05.05
Повідомлень: 25654

2020-07-13 19:21  
Тему перенесено з Анонси релізів до форуму Фільми в HD


staf777

Ваш часовий пояс: GMT + 2 Години

Нова тема   Відповісти